//TJADB Project
TITLE:FLOWER
TITLEJA:FLOWER
SUBTITLE:--DJ YOSHITAKA/jubeat
SUBTITLEJA:DJ YOSHITAKA 「jubeat」より
BPM:346
WAVE:FLOWER.ogg
OFFSET:-1.804
DEMOSTART:51.742

COURSE:Edit
LEVEL:10
SCOREINIT:380
SCOREDIFF:93
#START
#MEASURE 8/4
#SCROLL 0.5
11201121,
20001020100020001111111000000000,
10001000200120012001200120001111,
#SCROLL 4
500000000000000000000000000000000000000000000008000000000000000000000000
#SCROLL 0.5
400000000000000000000000,
12220122,
01220122,
01220122,
01220122,
12220122,
01220122,
10000121,
00001000000010002222222010000000,
1020122012022020,
1020122012022020,
1020122012022020,
1020122012021020,
1022012012022020,
1022012012022020,
1022012012022020,
1022012012021020,
10002020002010001000222020001000,
10002020002010001000222020001000,
10002020002010001000222020001000,
10001020002010001000222020002000,
10002020002010001000222020001000,
10002020002010001000222020001000,
10002020002010001000222020001000,
10001020002010001000222020002000,
10002100100010001000210010001000,
10002100100010001000210010001000,
10002100100010001000210010001000,
10002100100010001000210010001000,
10002100102010001000210010201000,
10002100102010001000210010201000,
10102210102010102210100040000000,
3003004004003040,//36
#GOGOSTART
3022121211211020,
1022112112111012,
1022121211211010,
2022122111210122,
1022121211211020,
1022112112111012,
1022121211211010,
2022122111210122,
1022121211221020,
1022112112121122,
1022121211211012,
1022122111210122,
1022121211221020,
1022112112121122,
1022121211211012,
1022022030303030,//52
#GOGOEND
3003003003003030,//53
#GOGOSTART
10002000102010001111111110002000,//54
#GOGOEND
3003003003003030,//55
#GOGOSTART
10022020102010001110001000102000,//56
#GOGOEND
3003003003003030,//57
#GOGOSTART
10002000102010001111111110002000,//58
#GOGOEND
3003003003003030,//59
#GOGOSTART
10022020102010001110002010004000,//60
#SCROLL 4
#GOGOEND
6,
000000000000000000000000000000000000000000000000000000000000000000000000000000000008000000000000,
#SCROLL 0.5
3,
,
,
,
3020202020222020,
3020202020222020,
30002220200020003000222020002000,
30000030000030002222222010001020,//70
#GOGOSTART
1022121211211221,
1122122111221122,
1022122111221212,
1022122112210122,
1022121211211221,
1122122111121121,
1022121211121112,
1022022030303030,//78
#GOGOEND
3003003003003030,//79
#GOGOSTART
10002000102010001111111110002000,//80
#GOGOEND
3003003003003030,//81
#GOGOSTART
10022020102010001110001000102000,//82
#GOGOEND
3003003003003030,//83
#GOGOSTART
10002000102010001111111110002000,//84
#GOGOEND
3003003003003030,//85
#GOGOSTART
10022020102010001110002010004000,//86
#GOGOEND
#END

COURSE:Oni
LEVEL:9
BALLOON:4
SCOREINIT:420
SCOREDIFF:105
#START
#MEASURE 8/4
#SCROLL 0.5
11201121,
2010102011110000,
1000202020202022,
500000000000000000000000000000000000000000000008000000000000000000000000400000000000000000000000,
12220122,
01220122,
01220122,
01220122,
12220122,
01220122,
10000121,
01017008,
1020222022020020,
1020222022020020,
1020222022020020,
1020222022020020,
1022022022020020,
1022022022020020,
1022022022020020,
1022022022022020,
1022021011022010,
1022021012022010,
1022021011022010,
1012021012022010,
1022021011022010,
1022021012022010,
1022021011022010,
1012021010202020,
1012021011022010,
1012021011022010,
1012021011022010,
1012021011022010,
1012021010120210,
1012021010120210,
1122112212112000,
3003004004003040,//36
#GOGOSTART
3021021101012021,
1021021101012122,
1021021101012010,
2022022011220221,
1021021101012021,
1021021101012122,
1021021101012010,
2022022011220221,
1021021101012021,
1021021101012212,
1021021101012010,
2022022011220221,
1021021101012021,
1021021101012212,
1021021101012010,
2022022011220221,//52
#GOGOEND
1003003003003030,//53
#GOGOSTART
100000000000200000000000100000200000100000000000500000000000000000000008000000000000200000000000,//54
#GOGOEND
3003003003003030,//55
#GOGOSTART
1020121022010020,//56
#GOGOEND
3003003003003030,//57
#GOGOSTART
100000000000200000000000100000200000100000000000500000000000000000000008000000000000200000000000,//58
#GOGOEND
3003003003003030,//59
#GOGOSTART
1020121022010040,//60
#GOGOEND
6,
000000000000000000000000000000000000000000000000000000000000000000000000000000000008000000000000,
3,
,
,
,
32222222,
32222222,
32223222,
3003003022220120,//70
#GOGOSTART
3021012022112211,
1021012201121122,
1021021122112020,
1022022011210121,
1021012022112211,
1021012201121122,
1021021122112020,
1022022011210121,//78
#GOGOEND
1003003003003030,//79
#GOGOSTART
100000000000200000000000100000200000100000000000500000000000000000000008000000000000200000000000,//80
#GOGOEND
3003003003003030,//81
#GOGOSTART
1020121022010020,//82
#GOGOEND
3003003003003030,//83
#GOGOSTART
100000000000200000000000100000200000100000000000500000000000000000000008000000000000200000000000,//84
#GOGOEND
3003003003003030,//85
#GOGOSTART
1020121022010040,//86
#GOGOEND
#END

COURSE:Hard
LEVEL:8
BALLOON:4,4
SCOREINIT:290
SCOREDIFF:90
#START
#MEASURE 8/4
#SCROLL 0.5
11201120,
2010102011110000,
10222222,
500000000000000000000000000000000000000000000008000000000000000000000000400000000000000000000000,
12220122,
01220122,
01220122,
01220122,
12220122,
01220122,
10000121,
01017008,
1020020022020020,
1020020022020020,
1020020022020020,
1020020022022020,
1020020022020020,
1020020022020020,
1020020022020020,
1020020022022020,
1022022010002020,
1022022010002020,
1022022010002020,
1022022010202020,
1022022010002020,
1022022010002020,
1022022010002020,
1022022010202020,
1022022010102010,
1022022010102010,
1022022010102010,
1022022010102010,
1022022010220220,
1022022010220220,
1011101011104000,
3003004004003040,//36
#GOGOSTART
3022022010111010,
1022022010111020,
1022022010111010,
2022022011110220,
1022022010111010,
1022022010111020,
1022022010111010,
2022022011110220,
1022022010111010,
1022022010111011,
1022022010111010,
2022022011110220,
1022022010111010,
1022022010111011,
1022022010111010,
2022022011110220,//52
#GOGOEND
3003003003003030,//53
#GOGOSTART
100000000000200000000000100000100000100000000000500000000000000000000008000000000000000000000000,//54
#GOGOEND
3003003003003030,//55
#GOGOSTART
1020111022010020,//56
#GOGOEND
3003003003003030,//57
#GOGOSTART
100000000000200000000000100000100000100000000000500000000000000000000008000000000000000000000000,//58
#GOGOEND
3003003003003030,//59
#GOGOSTART
1020111022010040,//60
#GOGOEND
6,
000000000000000000000000000000000000000000000000000000000000000000000000000000000008000000000000,
3,
,
,
,
32222222,
32222222,
32223222,
3003003070000080,//70
#GOGOSTART
3022022010111011,
1022022010111022,
1022022010111010,
2022022011110220,
1022022010111011,
1022022010111022,
1022022010111010,
2022022011110220,//78
#GOGOEND
3003003003003030,//79
#GOGOSTART
100000000000200000000000100000100000100000000000500000000000000000000008000000000000000000000000,//80
#GOGOEND
3003003003003030,//81
#GOGOSTART
1020111022010020,//82
#GOGOEND
3003003003003030,//83
#GOGOSTART
100000000000200000000000100000100000100000000000500000000000000000000008000000000000000000000000,//84
#GOGOEND
3003003003003030,//85
#GOGOSTART
1020111022010040,//86
#GOGOEND
,
,
#END

COURSE:Normal
LEVEL:7
BALLOON:7,7
#START
#MEASURE 8/4
#SCROLL 0.5
11201120,
500000000000000000000000000000000000000000000000000000000000000000000008000000000000000000000000,
10222220,
500000000000000000000000000000000000000000000000000000000000000000000008000000000000000000000000,
30220122,
01220122,
01220122,
01220122,
01220122,
01220122,
00000121,
000000000000100000000000000000000000500000000000000000000000000000000008000000000000000000000000,
11022001,
11022001,
11022001,
12022001,
11022001,
11022001,
11022001,
12022000,
10201021,
10201021,
10201021,
10221020,
10201021,
10201021,
10201021,
10221020,
11111122,
11111122,
11111122,
11111122,
11121112,
11121112,
500000000000000000000000000000000000000000000000000000000000000000000008000000000000000000000000,
7008,//36
#GOGOSTART
10101111,
10201120,
10101111,
10221021,
10101111,
10201120,
10101111,
10221021,
10201111,
10201120,
10201111,
10221021,
10201111,
10201120,
10201111,
500000000000000000000000000000000000000000000000000000000000000000000008000000000000000000000000,//52
#GOGOEND
3003003003003030,//53
#GOGOSTART
600000000000000000000000000000000000000000000000000000000000000000000008000000000000000000000000,//54
#GOGOEND
3003003003003030,//55
#GOGOSTART
600000000000000000000000000000000000000000000000000000000000000000000008000000000000000000000000,//56
#GOGOEND
3003003003003030,//57
#GOGOSTART
600000000000000000000000000000000000000000000000000000000000000000000008000000000000000000000000,//58
#GOGOEND
3003003003003030,//59
#GOGOSTART
600000000000000000000000000000000000000000000000000000000000000000000008000000000000000000000000,//60
#GOGOEND
3,
,
3,
,
,
,
3222,
3222,
3232,
7008,//70
#GOGOSTART
10201111,
10201122,
10201111,
10221021,
10201111,
10201122,
10201111,
500000000000000000000000000000000000000000000000000000000000000000000008000000000000000000000000,//78
#GOGOEND
3003003003003030,//79
#GOGOSTART
600000000000000000000000000000000000000000000000000000000000000000000008000000000000000000000000,//80
#GOGOEND
3003003003003030,//81
#GOGOSTART
600000000000000000000000000000000000000000000000000000000000000000000008000000000000000000000000,//82
#GOGOEND
3003003003003030,//83
#GOGOSTART
600000000000000000000000000000000000000000000000000000000000000000000008000000000000000000000000,//84
#GOGOEND
3003003003003030,//85
#GOGOSTART
600000000000000000000000000000000000000000000000000000000000000000000000000000000008000000000000,//86
#GOGOEND
,
,
#END

COURSE:Easy
LEVEL:5
BALLOON:5,5
#START
#MEASURE 8/4
#SCROLL 0.5
11101110,
500000000000000000000000000000000000000000000000000000000000000000000008000000000000000000000000,
10111010,
500000000000000000000000000000000000000000000000000000000000000000000008000000000000000000000000,
30220022,
00220022,
00220022,
00220022,
00220022,
00220022,
00000111,
000000000000100000000000000000000000500000000000000000000000000000000008000000000000000000000000,
1110,
1110,
1110,
1120,
1110,
1110,
1110,
1120,
1202,
1202,
1202,
1220,
1202,
1202,
1202,
1220,
1111,
1111,
1111,
1111,
11101110,
11101110,
500000000000000000000000000000000000000000000000000000000000000000000008000000000000000000000000,
7008,//36
#GOGOSTART
10101011,
1110,
10101011,
1120,
10101011,
1110,
10101011,
1120,
10101011,
1112,
10101011,
1120,
10101011,
1112,
10101011,
500000000000000000000000000000000000000000000000000000000000000000000008000000000000000000000000,//52
#GOGOEND
3003003003003030,//53
#GOGOSTART
600000000000000000000000000000000000000000000000000000000000000000000008000000000000000000000000,//54
#GOGOEND
3003003003003030,//55
#GOGOSTART
600000000000000000000000000000000000000000000000000000000000000000000008000000000000000000000000,//56
#GOGOEND
3003003003003030,//57
#GOGOSTART
600000000000000000000000000000000000000000000000000000000000000000000008000000000000000000000000,//58
#GOGOEND
3003003003003030,//59
#GOGOSTART
600000000000000000000000000000000000000000000000000000000000000000000008000000000000000000000000,//60
#GOGOEND
3,
,
3,
,
,
,
3222,
3222,
3232,
7008,//70
#GOGOSTART
10101011,
10101011,
10101011,
1120,
10101011,
10101011,
10101011,
50000000000000000000000000000000000000000000000000000000000000000000000800000000000000000000000000,//78
#GOGOEND
3003003003003030,//79
#GOGOSTART
60000000000000000000000000000000000000000000000000000000000000000000000800000000000000000000000000,//80
#GOGOEND
3003003003003030,//81
#GOGOSTART
600000000000000000000000000000000000000000000000000000000000000000000008000000000000000000000000,//82
#GOGOEND
3003003003003030,//83
#GOGOSTART
600000000000000000000000000000000000000000000000000000000000000000000008000000000000000000000000,//84
#GOGOEND
3003003003003030,//85
#GOGOSTART
600000000000000000000000000000000000000000000000000000000000000000000000000000000008000000000000,//86
#GOGOEND
,
,
#END
