//TJADB Project
TITLE:Aisowarai
TITLEJA:愛想笑い
SUBTITLE:--Kaneko Chiharu feat. Shizaki Yuki
SUBTITLEJA:かねこちはる
BPM:173
WAVE:Aisowarai.ogg
OFFSET:-2.602
DEMOSTART:72.984

COURSE:Oni
LEVEL:8
BALLOON:10
SCOREINIT:440
SCOREDIFF:120
#START
,
,
0002,
20220205,
#GOGOSTART
000000000000000000000008000000000000200000000000,
10110105,
000000000000000000000008000000000000200000000000,
1000101000112000,
2012101220121012,
2012101220121012,
2022202220221022,
1022101220122210,
01100020,
1020200120122110,
3000104000102011,
2010104000112010,
41141141,
1040000040112000,
#GOGOEND
0000100010000012,
2010202012101210,
0000200020000021,
1020101021202120,
0000100010000012,
2022102012202210,
0000200020000021,
1011201021101120,
02212210,
2210221020102010,
02012022,
0020201022122020,
01121120,
1120112010201020,
02012022,
0020201022101220,
0010102022201020,
1120221010202010,
02012022,
0020201020102210,
0020101011102010,
2110112020122210,
30202011,
0012202020201000,
10221121,
0010101010112000,
10010120,
1020001020100022,
10010120,
12012120,
2012101210122012,
1012101220121011,
1022201120112110,
2,
#GOGOSTART
1000200210102012,
2010201000102012,
1000200210102012,
1010201000102011,
1020201210102010,
0010201210102010,
4000401040104022,
1000101011211012,
1000200210102012,
2010201000102012,
1000200210102012,
2010201000102011,
1020201210102012,
2010201210102000,
1000200210102000,
1000202110102070,
0008,
1020200120122010,
4000203000201022,
1010203000221020,
32232232,
2030000030221000,
#GOGOEND
0000100010000012,
2010202012101210,
0000200020000021,
1020101021202120,
0000100010000012,
2022102012202210,
30000012,
0022102010201010,
1000201220112010,
0011201220112000,
#END

COURSE:Hard
LEVEL:7
BALLOON:11,11
SCOREINIT:550
SCOREDIFF:145
#START
,
,
0002,
20220205,
#GOGOSTART
000000000000000000000008000000000000200000000000,
10220205,
000000000000000000000008000000000000200000000000,
10220200,
0011101000222020,
0011101000222000,
1011101110111000,
10110201,
01700000,
08,
3000203000202220,
3030003000202220,
30230230,
200000600000000008000000300000000000400000000000,
#GOGOEND
0000100010000011,
1010202011102020,
0000200020000022,
2020101022201010,
0000100020000011,
1010202011102020,
0000200010000022,
2020101022201010,
01112220,
1110101022202020,
02002022,
0010200022202000,
01112220,
2220202011101010,
02002022,
0010200022202000,
01112211,
2220202011101010,
02020012,
0020102000202220,
01112211,
2220202011101010,
30000003,
0011101010002000,
30221121,
0011101040004000,
30110101,
04004000,
30110101,
0040000040000011,
1010101010100011,
1010101010100011,
1010101110101011,
10000005,
#GOGOSTART
000000000000000000000008000000000000200000000000,
10220205,
000000000000000000000008000000000000200000000000,
10220200,
0011101000222020,
0011101000222000,
1011101110111000,
10110205,
000000000000000000000008000000000000200000000000,
10220205,
000000000000000000000008000000000000200000000000,
10220200,
0011101000222020,
0011101000222000,
1011101110111000,
10110201,
01700000,
08,
3000203000202220,
3030003000202220,
30230230,
200000600000000008000000300000000000400000000000,
#GOGOEND
0000100010000011,
1010202011102020,
0000200020000022,
2020101022201010,
0000100020000011,
1010202011102020,
30000012,
0022202020002000,
10211121,
0010201010112000,
#END

COURSE:Normal
LEVEL:6
BALLOON:10,10
SCOREINIT:600
SCOREDIFF:163
#START
,
,
0002,
20220205,
#GOGOSTART
000000000000000000000000000008000000000000000000,
20220205,
000000000000000000000000000008000000000000000000,
20220200,
01110111,
02220220,
1112,
10110207,
,
8,
30230000,
30230000,
30230230,
23003040,
#GOGOEND
00101002,
02201122,
00202001,
01102211,
00101002,
02201122,
00202001,
01102211,
01101010,
11101010,
02002000,
02202020,
01101010,
11101010,
02002000,
02202020,
01101120,
11201122,
02020022,
02220220,
01101120,
11111020,
30000001,
01112020,
10002001,
01112000,
10110101,
02002000,
10110101,
02002001,
01101021,
11101021,
11101111,
20000005,
#GOGOSTART
000000000000000000000000000008000000000000000000,
10110205,
000000000000000000000000000008000000000000000000,
10110200,
01110111,
02220220,
1111,
10110106,
000000000000000000000000000000000008000000000000,
10110206,
000000000000000000000000000000000008000000000000,
10110200,
01110111,
02220220,
3333,
30330407,
,
8,
30230000,
30230000,
30230230,
23003040,
#GOGOEND
00101001,
01101122,
00101001,
01102211,
00202002,
02201122,
30000012,
01221010,
10112012,
01221040,
#END

COURSE:Easy
LEVEL:5
SCOREINIT:520
SCOREDIFF:183
#START
,
,
0002,
20000005,
#GOGOSTART
000000000000000000000000000000000000000000000008,
00000005,
000000000000000000000000000000000000000000000008,
,
1111,
1111,
1,
2,
3,
1110,
30030000,
30030000,
30030030,
03003040,
#GOGOEND
00101002,
0022,
00101001,
0011,
00101002,
0022,
00101001,
0011,
11,
1110,
11,
2220,
11,
1110,
11,
2220,
0101,
0111,
0101,
0222,
0101,
0111,
30000001,
0220,
10001001,
01103000,
3,
02002000,
3,
02002001,
01101001,
01101005,
000000000000000000000000000000000008000000000000,
30000005,
#GOGOSTART
000000000000000000000000000000000008000000000000,
10110105,
000000000000000000000008000000000000100000000000,
10110100,
11,
11,
1111,
30303005,
000000000000000000000000000000000008000000000000,
10110105,
000000000000000000000008000000000000100000000000,
10110100,
11,
22,
600000000000000000000000000000000008000000000000,
10110101,
01100000,
4440,
30030000,
30030000,
30030030,
03003040,
#GOGOEND
00101001,
0011,
00202002,
0022,
00101001,
0011,
30000003,
0011,
10001001,
01101040,
#END
