//TJADB Project
TITLE:Karamari no Hana
TITLEJA:カラ鞠の花
SUBTITLE:--Harunaba feat. Yuzuki Yukari
SUBTITLEJA:はるなば feat.結月ゆかり
BPM:148
WAVE:Karamari no Hana.ogg
OFFSET:-1.732
DEMOSTART:34.162

COURSE:Oni
LEVEL:10
BALLOON:38
SCOREINIT:410
SCOREDIFF:100
#START
3000400021121120,
0010201021121120,
0010201021121120,
#GOGOSTART
0020120121212121,
0120112011211121,
1020112011211021,
0120112011211121,
#GOGOEND
2112112111204000,
1000200202102011,
1000200202112000,
1000200202102011,
100000100000202020202020101010101010100000200100,
0121112111211221,
1121112111211221,
1121112121211221,
2112020211212221,
0121112111211221,
1121112111211211,
2011201122040402,
100400400400300222222222,
#GOGOSTART
1021012210210120,
1021012210210210,
1021021121120202,
1121020102112120,
1021012210210120,
1021012210210210,
1021021121120210,
1221021021012022,
1000200210102011,
2010201120102000,
500000000000000000000000000000000000000000000008,
#GOGOEND
,
,
100000200100000100200000202020202020202020202020,
#GOGOSTART
1020112101201120,
1021020101201122,
0020112101201120,
2112112112212212,
1011210210212121,
000100100200100100200100202010202010202010202010,
100000200200100100200100101010101010202020202020,
100200000400000400000200100020002000200020002000,
#GOGOEND
10010101,
1000001000100011,
10010101,
100222100100222222111111,
1002201002200222,
1002201002201222,
1002201002200222,
1002201122111122,
1000002000220020,
0020002000220022,
10101012,
100000200100000200000100202020101010202020101010,
1003002121212120,
300000000300000000200000202020101010101010101010,
13333333,
3021022122120120,
#GOGOSTART
3021012210210120,
1021012210210210,
1021021121120120,
1221021021012022,
1000200210102011,
2010201120102021,
0121112111212121,
1121112112211021,
0121112111212121,
200100100200100100200100202020101010202020101010,
2011201122040402,
7,
000000000000000000000000000000000000000000000008
#GOGOEND
#END

COURSE:Hard
LEVEL:7
BALLOON:6,24
SCOREINIT:450
SCOREDIFF:120
#START
3000400020120120,
0010201020120120,
0010201020120120,
#GOGOSTART
0020120020202021,
0120102011101020,
1020102011101021,
0120102011101020,
#GOGOEND
2012012011104000,
1000200200102010,
1000200200102000,
1000200200102011,
1010202011101021,
0120102010201021,
0120102011101021,
0120102010201025,
000000000000000000000008000000000000000000000100,
0120102010201021,
0120102011102000,
4000400022040402,
100000400000400000400000600000000000000008000000,//20
#GOGOSTART
1011021010010020,
1011021020020020,
1011021010010020,
100000100100000200000500000000000000008000000000,
1011021010010020,
1011021020020020,
1011021010010020,
1011021020102010,
1000200210102010,
2010201110102000,//30
#GOGOEND
500000000000000000000000000000000000000000000008,
,
,
78,//34
#GOGOSTART
1020102101201020,
100000200100000200000500000000000000008000000000,
0020102101201020,
2012012001102011,
1021020210210001,
0102102020202020,
1011101022201110,
100200000200000200000200500000000008000000000000,//42
#GOGOEND
10010100,
10010101,
10010100,
1000101000200011,
10210202,
1002201000200000,
10210202,
100000000200200000500000000000000008000000000000,
1000002020020020,
1000002020020020,
1111,
100000200100000200000500000000000000008000000000,
3003002020020020,
3003002020020020,
1000002220020020,
1000002220020020,//58
#GOGOSTART
1011021010010020,
1011021020020020,
1011021010010020,
1011021020102010,
1000200210102010,
2010201110102021,
0120102011101020,
1020102011101021,
0120102011101020,
2012012011102000,
4000400022040402,
7,
,//71
#GOGOEND
8,
,
#END

COURSE:Normal
LEVEL:7
BALLOON:6,6,20
#START
1000100020020020,
0010201020020020,
0010201020020020,//3
#GOGOSTART
0010010020202001,
02121110,
1020102010101001,
02121110,//7
#GOGOEND
4004004004004000,
10200021,
1202,
10200021,
1000200010001001,
0020102010101001,
0020102010101001,
0020102010101005,
000000000000000000000008000000000000000000000100,
0020102010201001,
02121210,
4460,
000000000000000000000008000000000000000000000000,//20
#GOGOSTART
1000201010010010,
1000201010010010,
1000201010010010,
100000000100000100000500000000000000008000000000,
1000201010010010,
1000201010010010,
1000201010010010,
1001001020002000,
10211020,
3444,//30
#GOGOEND
500000000000000000000000000000000000000000000008,
,
,
78,//34
#GOGOSTART
1010100100101000,
100000000100000100000500000000000000008000000000,
0020100100101000,
1001001000102000,
1010100100101001,
01102220,
11102220,
78,//42
#GOGOEND
10010000,
10010100,
10010000,
10010101,
10210200,
10210200,
10210200,
100000000000200000500000000000000008000000000000,
1,
,
1111,
100000000100000100000500000000000000008000000000,
3003000000000000,
3003000000000000,
1000001010010020,
1000001010010020,//58
#GOGOSTART
1000201010010010,
1000201010020020,
1000201010010010,
1001001020002000,
10211020,
3000400040004003,
02121110,
1020102010101001,
02121110,
2002002020002000,
4440,
7,
,//71
#GOGOEND
8,
,
#END

COURSE:Easy
LEVEL:4
BALLOON:3,3,15
#START
10101001,
00101001,
00101001,//3
#GOGOSTART
0000100020000001,
00101110,
1000100010101001,
00101110,//7
#GOGOEND
600000000000000000000000000008000000000000000000,
1202,
1202,
1202,
1000200010001001,
0000100010001001,
0000100010001001,
0000100010001005,
000000000000000000000008000000000000000000000100,
0000100010101001,
00101110,
4460,
000000000000000000000008000000000000000000000000,//20
#GOGOSTART
10101001,
10101001,
10101001,
500000000000000000000008000000000000000000000000,
10101002,
10101002,
10101002,
10011020,
1212,
3344,//30
#GOGOEND
600000000000000000000000000000000000000000000008,
,
,
78,//34
#GOGOSTART
10011010,
500000000000000000000000000000000008000000000000,
01011010,
500000000000000000000008000000000000000000000000,
11101010,
11101110,
10102220,
78,//42
#GOGOEND
10010000,
10010000,
10010000,
10010000,
10010100,
10010100,
10010100,
100000000000100000500000000000000008000000000000,
1,
,
1111,
500000000000000000000000000000000000008000000000,
3003000000000000,
3003000000000000,
1111,
10111001,//58
#GOGOSTART
10101002,
10101002,
10202002,
10022020,
1212,
3000300040003003,
01101110,
1010100010001001,
01101110,
10011020,
3330,
7,
,//71
#GOGOEND
8,
,
#END
