//TJADB Project
TITLE:Dragon of Summer ~Karyu~
TITLEJA:夏竜 ~Karyu~
SUBTITLE:--Azu♪
SUBTITLEJA:Azu♪
BPM:136
WAVE:Dragon of Summer Karyu.ogg
OFFSET:-3.256
DEMOSTART:33.246

COURSE:Edit
LEVEL:9
BALLOON:2
SCOREINIT:340
SCOREDIFF:88
#START
3003000030030011,
1001000010001010,
3003000030030011,
1001000010011010,
3003000030030000,
3000300030030030,
1001100010011000,
1222102212210010,
1010201111102000,
34343434,
34343343,
34343434,
3040302212122010,
300000101010200000200200100000101010200000200200,
100000101010200000200200100000101010200200100000,
300000101010200000200200100000101010200000200200,
100000101010200000202020100000000300000000300000,//17
#GOGOSTART
3002102120021021,
2002103040403040,
2021202120021020,
3003004004003040,
300000101010200000100100200000101010200000100100,
200111200400300300400300,
300000101010200000100100200000101010200000100000,
4003004003003040,
300000000200101010200200100000000200101010200200,
100000000200101010200200100000200000101010200000,
300000000200101010200200100000000200101010200000,
3004003004003040,
300000000200101010200200100000000200101010200200,
100000000200101010200200100000200000200000100000,
300000000200101010200200100000000200101010200000,
4003004003003030,
#MEASURE 7/8
0030340,//34
#MEASURE 4/4
#GOGOEND
1011010102021202,
100000100100000100000100000200000200202020202020,
1021020101021020,
100000200100000200000100202020200200200200100100,
1022020101021020,
100000202020000200000100000200000200100200000200,
1022020101021020,
100000202020000200000100000100100200100000200000,
100000200200000200000100000100000202020000200000,
100000202020000200000100000200000200100200000200,
1022020101012020,
1221221221001020,
100000202020100200000100000100200000400000300000,
1112020102021202,
100000202020100200007000008000000200200000200000,
1221221221004040,
100000202020100200000100000100200000400000300000,
100100100200000100000300000000002020200000200000,
100000202020100202020100000200000200100200000200,//53
#MEASURE 6/4
#GOGOSTART
122122122122122122122122,
#MEASURE 4/4
#SCROLL 0.5
300000000100200000200211,
1001001020102100,
300000000100200000200211,
100000000100000000100000200000101010200100000000,
300000000100200000200111,
1001001020102100,
3000001020002022,
111200111200,
#MEASURE 5/8
1001021010,//63
#MEASURE 3/4
#GOGOEND
100102101010,
#MEASURE 5/8
#SCROLL 1
2002002020,
#MEASURE 3/4
200200202020,
#MEASURE 5/8
2002002020,
#MEASURE 3/4
200000000200000000002020202020202020,//68
#MEASURE 5/8
#SCROLL 2
#GOGOSTART
1101201020,
#MEASURE 3/4
110120101120,
#MEASURE 5/8
1101201020,
#MEASURE 3/4
112122121212,
#MEASURE 5/8
1121221212,
#MEASURE 3/4
112122121212,
#MEASURE 5/8
1121221212,
#MEASURE 3/4
112122121212,
#MEASURE 5/8
3303033030,
#MEASURE 3/4
112121121212,
#MEASURE 5/8
3303033030,
#MEASURE 3/4
112121121222,
#MEASURE 5/8
3303033030,
#MEASURE 3/4
112121121212,
330303301222,
#MEASURE 4/4
3300330033003300,
#MEASURE 3/4
330400330400,
#MEASURE 4/4
000300000000300000000300000000000000020202020100,//86
#GOGOEND
#END

COURSE:Oni
LEVEL:8
BALLOON:5
SCOREINIT:440
SCOREDIFF:108
#START
11,
1000000010011010,
11,
1000000010011010,
1112,
1000100040040040,
0600,
000000000000000000000000000000000008000000000000,
4,
1020102210201021,
1020102210122010,
1020102210201021,
1020102210122010,
1011202210112021,
1012202110122010,
1011202210112021,
100000100200200000101010200000000400000000400000,//17
#GOGOSTART
3001201210012012,
1001201120202212,
1021201210012010,
4004003003004030,
4001202210212022,
1021202210101221,
2001202210212010,
4004004003003030,
3021201210212012,
1021201210202212,
1021201210212010,
4004003003004030,
4021202210212022,
1021202210101221,
2021202210212010,
4004004003003060,
#MEASURE 7/8
000000000000000000000000000008000000000000,//34
#GOGOEND
#MEASURE 4/4
0000000002020222,
000000000000000000000000000200000200202020202020,
1021020101021020,
100000200100000200000100202020200200200200100100,
1021020101021020,
1012020101012010,
1021020101021020,
1021020101212010,
1021020101021020,
1012020101012010,
1021020101021020,
1121221122002010,
1021120101221020,
1021120101221020,
1021120300022020,
100100200100200200100100202020200000200000200000,
1021120101221020,
1021120300022020,
1021120101221020,//53
#GOGOSTART
#MEASURE 6/4
112122112122112122112122,
#MEASURE 4/4
1000001020002021,
1001001020102100,
1000001020002021,
1001001020112100,
2000001020002022,
1001001020102100,
1000001020002022,
5,
#MEASURE 5/8
000000000000000000000000000008,//63
#GOGOEND
#MEASURE 3/4
,
#MEASURE 5/8
1001001010,
#MEASURE 3/4
100100102020,
#MEASURE 5/8
1001001010,
#MEASURE 3/4
101070080,//68
#GOGOSTART
#MEASURE 5/8
1001201012,
#MEASURE 3/4
100120102120,
#MEASURE 5/8
1001201210,
#MEASURE 3/4
100122122122,
#MEASURE 5/8
1001201210,
#MEASURE 3/4
100120102120,
#MEASURE 5/8
1001201210,
#MEASURE 3/4
100122122122,
#MEASURE 5/8
1101011010,
#MEASURE 3/4
112101102120,
#MEASURE 5/8
1201012010,
#MEASURE 3/4
120202201222,
#MEASURE 5/8
1101011010,
#MEASURE 3/4
112101102120,
120101201222,
#MEASURE 4/4
2101210121112101,
#MEASURE 3/4
220400220400,
#MEASURE 4/4
0300300300000000,//86
#GOGOEND
#END

COURSE:Hard
LEVEL:7
BALLOON:5,3
SCOREINIT:450
SCOREDIFF:115
#START
11,
1000000010011010,
11,
1000000010011010,
1112,
1000100040040040,
0600,
000000000000000000000000000000000008000000000000,
4,
12121212,
12121221,
12121212,
12121221,
1020201110201020,
1020201110202010,
1020201110201020,
1020201110000000,//17
#GOGOSTART
3001201010012010,
1001201020201010,
1001201010012010,
4004003003004030,
4002202020022020,
2002202020201010,
2002202020022020,
4004004003003030,
3001201110012011,
1001201110202010,
1001201110012010,
4004003003004030,
4002202220022022,
2002202220201010,
2002202220022020,
4004004003003060,
#MEASURE 7/8
000000000000000000000000000008000000000000,//34
#GOGOEND
#MEASURE 4/4
0000000002020222,
0000000002022020,
1011010101011010,
1011010700000080,
1011010101011000,
1022020101022000,
1011010101011000,
1022020102222000,
1011010101011000,
1022020101022000,
1011010101011000,
3003003003003030,
1022010101022000,
1011010101011000,
1022020300000000,
600000000000000000000000000000000008000000000000,
1022010101022000,
1022020300000000,
1022020101011000,//53
#GOGOSTART
#MEASURE 6/4
33334444,
#MEASURE 4/4
3000001020001011,
1001001020001000,
1000001020001011,
1,
2000001020002022,
1001001020002000,
1000001020002022,
5,
#MEASURE 5/8
000000000000000000000000000008,//63
#GOGOEND
#MEASURE 3/4
,
#MEASURE 5/8
1001001010,
#MEASURE 3/4
100100102020,
#MEASURE 5/8
1001001010,
#MEASURE 3/4
100100700080,//68
#GOGOSTART
#MEASURE 5/8
1001001010,
#MEASURE 3/4
100100102020,
#MEASURE 5/8
1001001010,
#MEASURE 3/4
100100101010,
#MEASURE 5/8
1001001010,
#MEASURE 3/4
100100102020,
#MEASURE 5/8
1001001010,
#MEASURE 3/4
100100101010,
#MEASURE 5/8
1101011010,
#MEASURE 3/4
110101101000,
#MEASURE 5/8
2202022020,
#MEASURE 3/4
220202202000,
#MEASURE 5/8
1101011010,
#MEASURE 3/4
110101101000,
220202202220,
#MEASURE 4/4
32323232,
#MEASURE 3/4
220400220400,
#MEASURE 4/4
0300300300000000,//86
#GOGOEND
,
,
#END

COURSE:Normal
LEVEL:6
BALLOON:5
SCOREINIT:480
SCOREDIFF:130
#START
11,
10001011,
11,
10001011,
11,
#BPMCHANGE 136
1000100040040040,
0600,
000000000000000000000000000000000008000000000000,
4,
10101212,
10101221,
10101212,
10101221,
10201210,
10201221,
10201210,
1230,//17
#GOGOSTART
1001100010011000,
1001100010101000,
1001100010011000,
3003003003003000,
2002200020022000,
2002200020202000,
2002200020022000,
3003003003003000,
1001100010011000,
1001100010101000,
1001100010011000,
3003003003003000,
2002200020022000,
2002200020202000,
2002200020022000,
4004004003003060,
#MEASURE 7/8
000000000000000000000000000008000000000000,//34
#GOGOEND
#MEASURE 4/4
,
,
1010000101000000,
1010000700000080,
10201120,
10201122,
10201120,
10201122,
10201120,
10201122,
10201120,
3003003003003000,
10201121,
10201122,
1000200300000000,
600000000000000000000000000000000008000000000000,
10201121,
1000200300000000,
10201122,//53
#GOGOSTART
#MEASURE 6/4
33334444,
#MEASURE 4/4
30012010,
10012010,
10012010,
1,
20012020,
10012020,
10012020,
5,
#MEASURE 5/8
000000000000000000000000000008,//63
#GOGOEND
#MEASURE 3/4
,
#MEASURE 5/8
1001001000,
#MEASURE 3/4
1110,
#MEASURE 5/8
1001001000,
#MEASURE 3/4
1110,//68
#GOGOSTART
#MEASURE 5/8
1001001010,
#MEASURE 3/4
1110,
#MEASURE 5/8
1001001020,
#MEASURE 3/4
1110,
#MEASURE 5/8
1001001010,
#MEASURE 3/4
1110,
#MEASURE 5/8
1001001020,
#MEASURE 3/4
1110,
#MEASURE 5/8
1001001010,
#MEASURE 3/4
100100101000,
#MEASURE 5/8
2002002020,
#MEASURE 3/4
200200202000,
#MEASURE 5/8
1001001010,
#MEASURE 3/4
100100101000,
200200202000,
#MEASURE 4/4
3333,
#MEASURE 3/4
3434,
#MEASURE 4/4
0300300300000000,//86
#GOGOEND
,
,
#END

COURSE:Easy
LEVEL:4
BALLOON:3,4,4
SCOREINIT:370
SCOREDIFF:98
#START
11,
1011,
11,
1011,
11,
#BPMCHANGE 136
1000100030030030,
0600,
000000000000000000000000000008000000000000000000,
4,
1111,
1110,
1111,
1110,
1211,
1210,
1211,
1230,//17
#GOGOSTART
1111,
1100,
1111,
3003003003003000,
2222,
2200,
2222,
3003003003003000,
1212,
1211,
1212,
3003003003003000,
1212,
1211,
1212,
3003003003003060,
#MEASURE 7/8
000000000000000000000000000008000000000000,//34
#GOGOEND
#MEASURE 4/4
,
,
1202,
1000200700000080,
1202,
1202,
1202,
1122,
1202,
1202,
1202,
3003003003003000,
1210,
1210,
78,
600000000000000000000000000000000008000000000000,
1210,
78,
1210,//53
#GOGOSTART
#MEASURE 6/4
33333333,
#MEASURE 4/4
3001,
1001,
1001,
1,
2002,
1002,
1002,
5,
#MEASURE 5/8
000000000000000000000000000008,//63
#GOGOEND
#MEASURE 3/4
,
#MEASURE 5/8
1001000000,
#MEASURE 3/4
1100,
#MEASURE 5/8
1001000000,
#MEASURE 3/4
1100,//68
#GOGOSTART
#MEASURE 5/8
1001001000,
#MEASURE 3/4
1110,
#MEASURE 5/8
2002002000,
#MEASURE 3/4
2220,
#MEASURE 5/8
1001001000,
#MEASURE 3/4
1110,
#MEASURE 5/8
2002002000,
#MEASURE 3/4
2220,
#MEASURE 5/8
1001001000,
#MEASURE 3/4
1110,
#MEASURE 5/8
2002002000,
#MEASURE 3/4
2220,
#MEASURE 5/8
1001001000,
#MEASURE 3/4
1110,
2220,
#MEASURE 4/4
3333,
#MEASURE 3/4
44,
#MEASURE 4/4
0300300300000000,//86
#GOGOEND
,
,
#END
