//TJADB Project
TITLE:The Windmill Song
TITLEJA:The Windmill Song
SUBTITLE:--Junko Ozawa/Klonoa: Door to Phantomile
SUBTITLEJA:「風のクロノア」より
BPM:125
WAVE:The Windmill Song.ogg
OFFSET:-6.068
DEMOSTART:15.543

COURSE:Oni
LEVEL:8
SCOREINIT:560
SCOREDIFF:148
#START
#MEASURE 3/4
220220202010,
221221,
#MEASURE 9/8
220220202010202010,
#MEASURE 9/16
100101010200200100200100200,
100101010200200100200100200,
100101010200200100200100200,
#MEASURE 3/4
1,//7
#GOGOSTART
110102102020,
110102102021,
110102102020,
110102102021,
110102102020,
110102102021,
110102102020,
#MEASURE 5/8
1021021020,
1021021020,
1021021020,
1021021020,
1221021020,
1221021020,
1221021020,
1221021020,//22
#GOGOEND
1202011020,
1202012220,
1202011020,
1202012210,
1202021020,
1202012220,
1202021020,
1202022210,
222200222200200,
200200200200202020200000200000,
222200222200200,
1202012220,
2102022210,
1202012220,
1202021020,
100200000200000100202020200000,
2102022210,
100200000200000100202020200000,
#MEASURE 3/4
120202104000,//41
#GOGOSTART
110102102020,
110102102021,
110102102020,
110102102021,
110102102020,
110102102021,
110102102020,
#MEASURE 5/8
1021221020,
1021121120,
1021221020,
#MEASURE 3/4
102112112020,//52
#GOGOEND
100100102120,
100201102020,
100100102120,
100101102020,
100100102120,
1212,
1212,
100200102020,//60
#GOGOSTART
112121102020,
122122102020,
112121102020,
122122102020,
112121112121,
100201100201,
101201101201,
121211212220,//68
#GOGOEND
110110202010,
122122,
110110202010,
122122,
110110202010,
122122,
#MEASURE 9/8
110110202010202010,
#MEASURE 9/16
100101010200200100200100200,
100101010200200100200100200,
100101010200200100200100200,
#MEASURE 3/4
1,
#END

COURSE:Hard
LEVEL:6
BALLOON:20,18,20
#START
#MEASURE 3/4
202202,
202202,
#MEASURE 9/8
202202200,
#MEASURE 9/16
7,
,
,
#MEASURE 3/4
800000000011,//7
#GOGOSTART
100100101010,
100100202011,
100100101010,
100100202011,
100100101010,
100100202011,
100100101010,
#MEASURE 5/8
1002001020,
1002001020,
1002001020,
1002002020,
1002002020,
1002002020,
1002002020,
1,//22
#GOGOEND
1001001020,
2002002010,
1001001020,
2002002010,
1001001020,
2002002010,
1001001020,
2002002010,
7,
,
8,
1101002020,
1101001010,
1101002020,
1101001010,
1101002020,
1101001010,
1101002020,
#MEASURE 3/4
110100404011,//41
#GOGOSTART
100200101010,
100200101011,
100200101010,
100200101011,
100200101010,
100200101011,
100200101010,
#MEASURE 5/8
1002001020,
1002001020,
1002001020,
#MEASURE 3/4
1,//52
#GOGOEND
100100102020,
100200102020,
100100102020,
101122,
100100102020,
100200102020,
100100102020,
101122,//60
#GOGOSTART
100200102020,
100201102020,
100200102020,
100201102020,
100201100201,
100200102020,
100201100201,
1210,//68
#GOGOEND
100100202010,
122122,
100100202010,
122122,
100100202010,
122122,
#MEASURE 9/8
100100202010202010,
#MEASURE 9/16
7,
,
,
#MEASURE 3/4
8,
,
#END

COURSE:Normal
LEVEL:6
BALLOON:16,15,16
#START
#MEASURE 3/4
202200,
202200,
#MEASURE 9/8
202202200,
#MEASURE 9/16
7,
,
,
#MEASURE 3/4
8,//7
#GOGOSTART
100111,
1,
100111,
1,
100111,
1,
100111,
#MEASURE 5/8
10011,
10012,
10011,
10022,
20021,
20022,
20021,
2,//22
#GOGOEND
1001001000,
2002002000,
1001001000,
2002002000,
1001001000,
2002002000,
1001001000,
2002002000,
7,
,
8,
1001002000,
1001001010,
1001002000,
1001001010,
1001002000,
1001002020,
1001002000,
#MEASURE 3/4
100100404000,//41
#GOGOSTART
100111,
1,
100111,
1,
100111,
1,
100111,
#MEASURE 5/8
10011,
10012,
10011,
#MEASURE 3/4
1,//52
#GOGOEND
1110,
1210,
1110,
101100,
1110,
1210,
1110,
101100,//60
#GOGOSTART
100200102020,
100200100020,
100200102020,
100200100020,
100200102020,
100200100020,
100200102020,
1210,//68
#GOGOEND
100100200010,
101100,
100100200010,
101100,
100100200010,
101100,
#MEASURE 9/8
100100200010100010,
#MEASURE 9/16
7,
,
,
#MEASURE 3/4
8,
,
#END

COURSE:Easy
LEVEL:4
BALLOON:13,12,13
#START
#MEASURE 3/4
22,
2,
#MEASURE 9/8
222,
#MEASURE 9/16
7,
,
,
#MEASURE 3/4
8,//7
#GOGOSTART
11,
1,
11,
1,
11,
1,
11,
#MEASURE 5/8
10010,
10010,
10010,
10020,
20020,
20020,
20020,
2,//22
#GOGOEND
10011,
00011,
00011,
00011,
10022,
00022,
00022,
00022,
7,
,
8,
10012,
00012,
00012,
00011,
10012,
00012,
00012,
#MEASURE 3/4
000440,//41
#GOGOSTART
11,
1,
11,
1,
11,
1,
11,
#MEASURE 5/8
10011,
10011,
10011,
#MEASURE 3/4
1,//52
#GOGOEND
1110,
11,
1110,
11,
1110,
11,
1110,
11,//60
#GOGOSTART
1210,
12,
1210,
12,
1210,
12,
1210,
12,//68
#GOGOEND
1120,
101100,
1120,
101100,
1120,
101100,
#MEASURE 9/8
112010,
#MEASURE 9/16
7,
,
,
#MEASURE 3/4
8,
,
#END
