//TJADB Project
TITLE:Kumamoto Surprise! Kumamon Gymnastics
TITLEJA:くまもとサプライズ!
SUBTITLE:--Bombo Fujii feat. Kumamontai
SUBTITLEJA:くまモン体操
BPM:150
WAVE:Kumamoto Surprise! Kumamon Gymnastics.ogg
OFFSET:-3.305
DEMOSTART:52.905

COURSE:Oni
LEVEL:6
BALLOON:12
SCOREINIT:580
SCOREDIFF:170
#START
33333333,
33000000,
12121220,
11210121,
11210122,
7008,
12121121,
0022020210201020,
12211212,
1020201010222010,
11210121,
11011121,
1010201020020020,
0022020220202000,
12121121,
0022020210201020,
12211212,
1020201010222010,
11211121,
01210121,
11211123,
3000303000101111,
11012202,
11012020,
11012202,
11012020,
30430040,
30430040,
30303336,
000000000008000000300000300000000000300000000000,
2220000000000000,//31
#GOGOSTART
1110111011102000,
11210121,
11210122,
33020222,
1110111011102000,
11210121,
11210122,
33000000,
33333333,
33020222,
1110111011102000,
11210121,
11210122,
33020222,
1110111011102000,
11210121,
11210122,
33000000,
1110111011101110,
33020222,
1110111011101110,
33020222,
12121212,
02222030,//55
#GOGOEND
#END

COURSE:Hard
LEVEL:4
BALLOON:10
SCOREINIT:530
SCOREDIFF:150
#START
33333333,
33000000,
1110,
10110100,
11010122,
7008,
10101121,
0211,
10012020,
20022020,
11210121,
12012020,
10110020,
02202220,
11101121,
0211,
10112020,
20220220,
11211121,
01210121,
10200023,
30330000,
11012202,
11012020,
11012202,
11012020,
30430000,
30430000,
30303336,
000000000008000000000000000000000000000000000000,
2220000000000000,//31
#GOGOSTART
12121020,
11210121,
11210122,
33020222,
12121020,
11210121,
11210122,
33000000,
33333333,
33000000,
12121020,
11210121,
11210122,
33020222,
12121020,
11210121,
11210122,
33000000,
33333333,
33020222,
33333333,
33020222,
12121212,
02222030,//55
#GOGOEND
,
#END

COURSE:Normal
LEVEL:3
BALLOON:7
#START
33,
33000000,
1110,
1110,
1111,
7008,
10101011,
0011,
5,
000000000000000000000000000000000008000000000000,
10101110,
10101110,
10110000,
,
10101011,
0011,
5,
000000000000000000000000000000000008000000000000,
10101110,
10101110,
10000003,
30330000,
1120,
10111000,
1120,
10111000,
30030000,
30030000,
3336,
000000000008000000000000000000000000000000000000,
4,//31
#GOGOSTART
1110,
10110100,
1111,
33000000,
1110,
10110100,
1111,
33000000,
5,
000008000000000000000000000000000000000000000000,
1110,
10110100,
1111,
33000000,
1110,
10110100,
1111,
33000000,
5,
000008000000000000000000000000000000000000000000,
5,
000008000000000000000000000000000000000000000000,
1111,
02222030,//55
#GOGOEND
,
#END

COURSE:Easy
LEVEL:2
BALLOON:5
#START
5,
000008000000000000000000000000000000000000000000,
11,
1110,
11,
7008,
11,
0011,
5,
000000000000000000000000000008000000000000000000,
11,
11,
1,
,
11,
0011,
5,
000000000000000000000000000008000000000000000000,
11,
00050000,
000000000008000000000000000000000000000000000000,
30030000,
12,
1110,
12,
1110,
3,
3,
3336,
000000000008000000000000000000000000000000000000,
4,//31
#GOGOSTART
1110,
3,
5,
000008000000000000000000000000000000000000000000,
1110,
3,
5,
000008000000000000000000000000000000000000000000,
5,
000008000000000000000000000000000000000000000000,
1110,
3,
5,
000008000000000000000000000000000000000000000000,
1110,
3,
5,
000008000000000000000000000000000000000000000000,
5,
000008000000000000000000000000000000000000000000,
5,
000008000000000000000000000000000000000000000000,
1111,
0003,//55
#GOGOEND
,
#END
