//TJADB Project
TITLE:Houou Tenbu Mugen Kuzure
TITLEJA:鳳凰天舞無限崩れ
SUBTITLE:--Takahito Eguchi
BPM:150
WAVE:Houou Tenbu Mugen Kuzure.ogg
OFFSET:-6.074
DEMOSTART:40.087

COURSE:Oni
LEVEL:9
BALLOON:20
SCOREINIT:470
SCOREDIFF:123
#START
#BARLINEOFF
#MEASURE 5/4
70008,
#BARLINEON
#MEASURE 4/4
1001202010104000,
11202330,
100000101010200000200100100200200000400000000000,
100000200200101010101010200000100000300000000000,
112200221100100100200200,
1012101010002000,
112200221100100100200200,
1012102210102000,
112200221100100100200200,
1012101010112211,
112200221100100100200200,
1012102210102000,
1020112010201120,
1020112011221120,
1020112010201120,
1020112111211120,
1020112010201120,
1020112011221120,
12021202,
100000100000100000100000100000200200100100101010,
#GOGOSTART
2022102010112020,
1022102011201120,
1022102011221122,
100000200200100000200100200000000000200000202020,
1022102010112020,
1022102011201120,
1022102011221122,
1022102120002000,
#GOGOEND
1110222020001110,
2220112200002200,
1110000020001110,
000222100200000200000000,
1110000020001110,
000200222100000200200200,
1110100020101110,
2210221022102210,
1110101121201111,
2210112111221122,
1110101121201111,
2020102211201122,
1110101121201111,
201010101010200000200200100100200200100100200200,
1011011211211212,
101010200100101010200100101010101010201010101010,
#GOGOSTART
2022102010112020,
1022102011201120,
1022102011221122,
100000200200100000200100200000000000200000202020,
1022122010112020,
1022102011201120,
1022102011221122,
1022102120002000,
3000222211102212,
1010221210304000,
2010102212102210,
1020121022121011,
2010201210221210,
2012102212101011,
2212102212102211,
1222121022112122,
100200100000200200100200100000200000101020201010,
2211202010404040,
#GOGOEND
#END

COURSE:Hard
LEVEL:7
BALLOON:15,13
SCOREINIT:500
SCOREDIFF:128
#START
#BARLINEOFF
#MEASURE 5/4
7000000008,
#BARLINEON
#MEASURE 4/4
1001101010104000,
11202330,
1010102011104000,
1001101020103000,
1110222010102020,
1011101010002000,
1110222010102020,
1011102010004000,
1110222010102020,
1011101010002000,
1110222010102020,
1011102010004000,
12121212,
1020102010222020,
12121212,
1020102022202220,
12121212,
1020102011201120,
12021202,
11111140,//21
#GOGOSTART
1020101010112000,
1020102011201120,
12111212,
1000101120002000,
1020101010112000,
1020102011201120,
12111212,
1000101120002000,//29
#GOGOEND
1110000020001110,
0000111100002200,
1110000020001110,
00020200,
1110000020001110,
0020222000202020,
1110100020101110,
2220222022202220,
1110101020001110,
1010202220222000,
1110101020001110,
1020102222202220,
1110101020001110,
2022202010201020,
1011011011011011,
7008,//45
#GOGOSTART
1020101010112000,
1020102011201120,
12111212,
1000101120002000,
1020101010112000,
1020102011201120,
12111212,
1000101120002000,
3000222011102000,
1000222020304000,
2000102011102000,
1020111020201010,
2010201120201110,
2011202011101022,
2011202011102011,
2020111020112020,
1110201120201111,
10300444,//63
#GOGOEND
,
,
#END

COURSE:Normal
LEVEL:5
BALLOON:10,13
#START
#BARLINEOFF
#MEASURE 5/4
7000000008,
#BARLINEON
#MEASURE 4/4
10111030,
20202330,
10010130,
20222030,
10101110,
10101120,
10101110,
1114,
10101110,
10101120,
10101110,
1114,
0121,
20111020,
2121,
20111010,
0121,
20111010,
1212,
500000000000000000000000000008000000400000000000,//21
#GOGOSTART
11101020,
11101202,
11101110,
1144,
11101020,
11101202,
11101110,
1133,//29
#GOGOEND
11002011,
0002,
11002011,
00020200,
11002011,
00220222,
11002011,
500000000000000000000000000000000008000000000000,
11012011,
01220200,
11012011,
02022022,
11012011,
22202020,
500000000000000000000000000000000008000000000000,
7008,//45
#GOGOSTART
11101020,
11101202,
11101110,
1144,
11101020,
11101202,
11101110,
1122,
10201120,
10200330,
10120110,
12011030,
01201101,
2344,
20110120,
11012030,
01201101,
20300444,//63
#GOGOEND
,
,
#END

COURSE:Easy
LEVEL:4
BALLOON:8,7
SCOREINIT:520
SCOREDIFF:170
#START
#BARLINEOFF
#MEASURE 5/4
7000000008,
#BARLINEON
#MEASURE 4/4
1110,
2220,
1110,
2220,
1111,
1110,
1111,
2220,
1111,
1110,
1111,
2220,
0121,
2110,
0121,
2111,
0121,
2111,
11,
500000000000000000000008000000000000400000000000,//21
#GOGOSTART
1110,
1120,
1111,
1110,
1110,
1120,
1111,
1110,//29
#GOGOEND
11000011,
,
11000011,
,
11000011,
00000220,
11000011,
500000000000000000000000000000000008000000000000,
11002011,
00220000,
11002011,
02000000,
11002011,
0222,
500000000000000000000000000000000008000000000000,
7008,//45
#GOGOSTART
1110,
1120,
1111,
1110,
1110,
1120,
1111,
1110,
1212,
10200330,
10010110,
02011030,
00201100,
1344,
20010110,
01011030,
01101101,
10300444,//63
#GOGOEND
,
,
#END
