//TJADB Project
TITLE:Love Song wa Tomaranai yo
TITLEJA:ラブソングはとまらないよ
SUBTITLE:--Ikimono-gakari
SUBTITLEJA:「カルピスウォーター」CMソング
BPM:114
WAVE:Love Song wa Tomaranai yo.ogg
OFFSET:-2.225
DEMOSTART:71.687

COURSE:Oni
LEVEL:6
SCOREINIT:600
SCOREDIFF:160
#START
#GOGOSTART
1022201010202010,
0022201020102010,
1022201010202010,
0022201010201020,
1022201010202010,
0022201020102010,
1000221010002210,
1000221010102100,//8
#GOGOEND
1020102210201020,
1020102210221020,
1020102210221220,
1020102010220220,
1020102210201020,
1020102210221020,
1020102210221220,
1020102010102210,
1000202010102220,
1010202010102022,
1000202010102220,
1022102010102022,
1000202010102220,
1010202010102022,
10221122,
1000101020120120,
100222200100100000200000,
100222200100100000200000,
100222200100100000200200,
1021021010102000,
11211121,
100222200100100100200100,
11211120,
11211121,
1120221030003000,//33
#GOGOSTART
1110111010102020,
1010200022201010,
1110111010102020,
1010200022201010,
2220101022102020,
1010201022102000,
1110222010102010,
1010201012201220,
1110111010102020,
1010200022201010,
1110111010102020,
1010200022201010,
2210101022102020,
1010221010102000,
1110222010102010,
1110111030000000,//49
#GOGOEND
500000000000000000000000000000000000000000000008,
#END

COURSE:Hard
LEVEL:4
#START
#GOGOSTART
30011225,
000000000008000000200000200000100000100000100000,
500000000008000000100000100000200000200000500000,
000000000008000000100000100000200000100000200000,
500000000008000000100000100000200000200000500000,
000000000008000000200000200000100000100000100000,
500000000008000000100000500000000000800000100000,
500000000008000000100000100000100000200000000000,//8
#GOGOEND
10101012,
10101212,
10101012,
10101212,
10101012,
10101212,
10121212,
10103330,
10201120,
10201122,
10201120,
3333,
10201122,
11201120,
10201122,
1000100020020020,
10011020,
10011020,
10011022,
2002002010102000,
11211120,
11211120,
11211120,
11221122,
11223030,//33
#GOGOSTART
11122215,
000008000000100000000000100000100000200000000000,
11122215,
000008000000100000000000000000000000100000100000,
00220112,
02210120,
11221120,
11223030,
11122215,
000008000000100000000000100000100000200000000000,
11122215,
000008000000100000000000000000000000100000100000,
01220112,
02210120,
11221120,
11223000,//49
#GOGOEND
500000000000000000000000000000000000000000000008,
,
,
,
#END

COURSE:Normal
LEVEL:4
BALLOON:20
#START
#GOGOSTART
3012,
1012,
1012,
10011220,
1012,
1012,
10011001,
10011000,//8
#GOGOEND
10101011,
1110,
10101011,
1110,
10101011,
1110,
10101122,
10003330,
10201120,
1210,
10201120,
3330,
30201120,
1210,
10201122,
1022,
10011020,
10011020,
10011020,
10011220,
10201120,
10201120,
10201120,
5,
000000000000000000000008000000000000000000000000,//33
#GOGOSTART
11101022,
01102020,
11101022,
01100011,
00220111,
01112020,
11102020,
500000000000000000000000000000000008000000000000,
11101022,
01102020,
11101022,
01100011,
02220111,
01112020,
10201120,
11223000,//49
#GOGOEND
9,
09,
8,
,
#END

COURSE:Easy
LEVEL:3
BALLOON:15
#START
#GOGOSTART
3002,
3002,
3002,
3033,
3002,
3002,
500000000000000000000000000008000000000000000000,
500000000000000000000000000008000000000000000000,//8
#GOGOEND
11,
11,
11,
1110,
11,
11,
11,
1033,
3012,
1012,
1012,
33,
3012,
1012,
1012,
3033,
3002,
1002,
1002,
1012,
11,
1110,
11,
5,
000000000000000000000008000000000000000000000000,//33
#GOGOSTART
3330,
500000000000000008000000000000000000000000000000,
3330,
500000000000000008000000000000000000300000000000,
0301,
1100,
1111,
500000000000000000000008000000000000000000000000,
3330,
500000000000000008000000000000000000000000000000,
3330,
500000000000000008000000000000000000300000000000,
0301,
1100,
1111,
500000000000000000000008000000000000000000000000,//49
#GOGOEND
9,
09,
8,
,
#END
