//TJADB Project
TITLE:MATSURI D/A
TITLEJA:MATSURI D/A
SUBTITLE:--Vincent
BPM:130
WAVE:MATSURI D A.ogg
OFFSET:-2.005
DEMOSTART:68.456

COURSE:Oni
LEVEL:8
SCOREINIT:480
SCOREDIFF:120
#START
3002002012201020,
2022002011120022,
1002002012201020,
2022002212201030,
3002002012201020, //5
400000000400000000100200
100000200000200200202020,
1220122012201220,
100200200200200200200200
200200200200202020202020,
1002120200102000,
1002120202102000, //10
1002120200102000,
1002120202102222,
1002120200102000,
1002120202102000,
1002120200102000, //15
1002120202103030,
3021120112101222,
1012120212102012,
1021120112101021,
1012120212102012, //20
1021120120220020,
1012120212102222,
1021120112101021,
1012120220404000,
1022102010221020, //25
1012101120221000,
1022102010221020,
3003003003003000,
1022102010221020,
1012101120221000, //30
1020102212221022,
1020102210102211,
1021201010212010,
1120122011201220,
33333333, //35
6008,
#GOGOSTART
1020200122122004,
0021101020112011,
2010200122122004,
0022202020202222, //40
1020200122122004,
0021101020112000,
2010221202112010,
1222122212221000,
#GOGOEND
34, //45
3003003040030030,
34,
3003003040600080,
#GOGOSTART
1020102210201022,
1020102212201021, //50
2010221202112012,
1020221202112222,
2002220200002000,
2000200202002000,
2002220200002000, //55
2000200202002000,
300300300111100300300111,
100300300111100111100111,
2211221122112211,
200100200100200100200100
202020202020100100100200, //60
#GOGOEND
#END

COURSE:Hard
LEVEL:8
SCOREINIT:670
SCOREDIFF:200
#START
300000000000000000000000000000000000000000000000,
000000000000000000000000400000000400000000000000,
300000000000000000000000000000000000000000000000,
000000000000000000000400000000400000000000300000,
300000000000000000000000000000000000000000000000,
400000000400000000000400000000400000400000000000,
300000000000300000000000300000000000300000000000,
200200200000200200200000200200200000200000000000,
100000000100100000000200000000100000200000000000,
100000000100100000000200000200000000100000000000,
100000000100100000000200000000100000200000000000,
100000000100100000000200000200000000100000000000,
100000000100100000000200000000100000200000000000,
100000000100100000000200000200000000100000000000,
100000000100100000000200000000100000200000000000,
100000000100100000000200000200000000300000300000,
300000000100100000000200000000100000200000000000,
100000000200200000000200000200000000100000000000,
100000000100100000000200000000100000200000000000,
100000000200200000000200000200000000100000000000,
100000000100100000000200000000100000200000000000,
100000000200200000000200000200000000100000000000,
100000000100100000000200000000100000200000000000,
100000000200200000200000100000100000100000100100,
100000200000100000000000100000200000100000000000,
100000200000100000200200200000200000100000000000,
100000200000100000000000100000200000100000000000,
300000000300000000300000000300000000300000000000,
100000200000100000000000100000200000100000000000,
100000200000100000200200200000200000100000000000,
100000200000100000000000100100100100100000000000,
100000200000100000000000100000100100100000000000,
100000100000200000200000100000100000200000100000,
100000200000100000200000100000200000100000200000,
300000300000300000300000300000300000300000300000,
600000000000000000000000000000000800000000000000,
#GOGOSTART
100000200000200000000000100000200200200000000400,
000000200000100000100000200000000000000000000000,
100000200000200000000000100000200200200000000400,
000000200000200000200000200000200000200000200000,
100000200000200000000000100000200200200000000400,
000000200000100000100000200000000000100000000000,
100000100000200000100100000000100000200000000000,
600000000000000000000000000000000800000000000000,
#GOGOEND
300000000000000000000000400000000000000000000000,
300000000300000000300000400000000000000000000000,
300000000000000000000000400000000000000000000000,
300000000300000000300000400000000000000000000000,
#GOGOSTART
100000200000100000100100100000200000100000000000,
100000200000100000100100100000200000100000000000,
100000100000200000100100000000100000200000000000,
100000200000200000100100000000100000200200200200,
200000000000200000000000200000000000200000000000,
200000000000200000000200000200000000200000000000,
200000000000200000000000200000000000200000000000,
200000000000200000000200000200000000200000000000,
100000300000100000300000100000300000100000300000,
100000300000100000300000100000300000100000300000,
100100100000100100100000100100100000100100100000,
100100100000100100100000200200200200200200200200,
#GOGOEND
000000000000000000000000000000000000000000000000,
000000000000000000000000000000000000000000000000,
#END //ふつうとかんたんのくすだまはイモ連打で代用。

COURSE:1
LEVEL:7
BALLOON:10
#START
3,
,
3,
00000003,
3,
,
3333,
6008,
1110,
1110,
1110,
1110,
1112,
1110,
1112,
3330,
10101110,
1122,
10101110,
1120,
10101120,
1122,
10101120,
50000800,
12101210,
12121010,
12101210,
1110,
12101210,
12121010,
12101210,
1110,
11101110,
50000080,
33333333,
60000080,
#GOGOSTART
11201020,
11111000,
11201020,
22222020,
11201020,
11111010,
11201120,
50000080,
#GOGOEND
34,
3330,
34,
3440,
#GOGOSTART
12020202,
12020202,
12020202,
12020222,
1111,
10101110,
1111,
10101110,
11111111,
33333333,
60000008,
90000008,
#GOGOEND
,
,
#END

COURSE:0
LEVEL:5
BALLOON:5
#START
3,
,
3,
00000003,
3,
,
3333,
60000800,
1110,
1110,
1110,
1110,
1120,
1110,
1120,
3330,
10101020,
1110,
10102020,
1110,
10101020,
1110,
10102020,
50000800,
10101110,
10101011,
10101110,
1110,
10101110,
10101011,
10101110,
1110,
11101110,
50000800,
3333,
60000800,
#GOGOSTART
11101010,
11103000,
11101010,
2220,
11101010,
11103000,
11101110,
50000800,
#GOGOEND
34,
3330,
34,
3330,
#GOGOSTART
02020202,
02020202,
02020202,
02020200,
1111,
10101110,
1111,
10101110,
11101110,
33333330,
60000080,
90000008,
#GOGOEND
,
,
#END
