//TJADB Project
TITLE:Zeihen ~transformation~
TITLEJA:蛻変
SUBTITLE:--ZZAN Shin-way
SUBTITLEJA:~transformation~
BPM:120
WAVE:Zeihen transformation.ogg
OFFSET:-2.174
DEMOSTART:42.163

COURSE:Edit
LEVEL:8
BALLOON:15,35
SCOREINIT:520
SCOREDIFF:138
#START
3030401102112010,
3030402201221020,
3030401102112010,
33430300,
1011201021102010,
1011201021102000,
1021102021102010,
1012201012201000,
1011201021102010,
1011201021102000,
1021102021102010,
1012201012202000,
1010201110102010,
1010201110102010,
1022201022201000,
1022102022102000,
1010201110102010,
1010201110102010,
1022201022201020,
1,//20
#GOGOSTART
1010211202102010,
1010212101102000,
1010211202102010,
1022101220102020,
1010211202102010,
1010212101102000,
1010211202102010,
1012202210102000,
1022202210211020,
12020211,
1022202210211020,
1021102010002010,
1022102110221021,
1022112210221122,//34
#GOGOEND
7000000000000800,
2212202202122000,
2212202202122010,
2012201222102000,
2211201102112000,
2211201102112010,
2012201222102022,
1020101222102000,
7,
0000000000000800,
3030401102112010,
3030402201221020,
3030401102112010,
1122112211221120,//48
#GOGOSTART
1010211202101020,
1010212101102000,
1010211202101020,
1022101220102020,
1010211202111020,
1010212101102000,
1010211202111020,
1012202210102000,
1022202210211020,
12020211,
1022202210211020,
1022102010002010,
1022102110221021,
1022112210221122,//62
#GOGOEND
1,
#END

COURSE:Oni
LEVEL:7
BALLOON:35
SCOREINIT:600
SCOREDIFF:163
#START
300000300000000000600008000000100100100000400000,
300000300000000000600008000000100100100000400000,
300000300000000000600008000000100100100000400000,
300000300000400000600008000000300000000000000000,
1010201220101000,
1010201220101000,
1011201000112010,
1010201220102000,
1010201210102000,
1010201210102000,
1011201000112010,
1010201210202000,
11210121,
11210121,
11201120,
1011201022102010,
11210121,
11210121,
500000000000000008000000500000000000000008000000,
3,//20
#GOGOSTART
1010201102102010,
1010201101102000,
1010201102102010,
1010201120112000,
1010201102102010,
1010201101102000,
1010201102102010,
1010201120112000,
1020202010221020,
1022202000201010,
1020202010221020,
1022202020002010,
1022201010222010,
1022102210221010,//34
#GOGOEND
1,
1011102000111020,
1000201202102011,
1000201202102000,
1022201010222010,
1000100010222010,
1000201202102000,
1000201202102000,
7,
0008,
300000300000000000600008000000100100100000400000,
300000300000000000600008000000100100100000400000,
300000300000000000600008000000100100100000400000,
3022201110222011,//48
#GOGOSTART
1010201102102010,
1010201101102000,
1010201102102010,
1010201120112000,
1010201202102010,
1010201201102000,
1010201202102010,
1010201220122000,
1020202010221020,
1022202000201010,
1020202010221020,
1022202020002010,
1022201010222010,
1022102210221030,//62
#GOGOEND
3,
#END

COURSE:Hard
LEVEL:6
BALLOON:27
SCOREINIT:640
SCOREDIFF:140
#START
300000300000000000600000000000000008000000000000,
300000300000000000600000000000000008000000000000,
300000300000000000600000000000000008000000000000,
300000300000300000600008000000300000000000000000,
1000201110102000,
1000201110102000,
11201120,
1010201110102000,
1000201110201000,
1000201110201000,
11201120,
1010201110202000,
10200121,
10200121,
10201120,
10201120,
10200121,
10200121,
500000000000000008000000500000000000000008000000,
3,//20
#GOGOSTART
1010201100102000,
1010201100102000,
1010201100201000,
1010201101102000,
1010201100102000,
1010201100102000,
1010201100201000,
1010201101102000,
11221120,
12020211,
12221022,
12221021,
21112021,
21212111,//34
#GOGOEND
1,
10101001,
1000202202202011,
1000202202202000,
10011000,
10101001,
1000202202202000,
1000202202202000,
7,
0008,
300000300000000000600000000000000008000000000000,
300000300000000000600000000000000008000000000000,
300000300000000000600000000000000008000000000000,
3011104030111040,//48
#GOGOSTART
1010201100102000,
1010201100102000,
1010201100201000,
1010201101102000,
1010201200101000,
1010201200101000,
1010201200201000,
1010201202101000,
11221120,
12020211,
12221022,
12221021,
21112111,
21212121,//62
#GOGOEND
1,
,
,
,
#END

COURSE:Normal
LEVEL:4
BALLOON:20
SCOREINIT:620
SCOREDIFF:160
#START
300000300000000000600000000008000000000000000000,
300000300000000000600000000008000000000000000000,
300000300000000000600000000008000000000000000000,
300000300000300000600000000000000008000000000000,
1201,
1201,
1201,
1212,
1202,
1202,
1202,
1212,
10002001,
10002011,
10002001,
10110020,
10002001,
10002011,
1212,
1,//20
#GOGOSTART
11101100,
11102200,
11101100,
11102200,
11201100,
11202200,
11201100,
11202200,
10201120,
10201120,
10201120,
10201120,
1111,
10101111,//34
#GOGOEND
1,
20202002,
2,
2,
20022000,
20202002,
2,
2,
7,
0008,
300000300000000000600000000008000000000000000000,
300000300000000000600000000008000000000000000000,
300000300000000000600000000008000000000000000000,
600000000000000000000000000000000008000000000000,//48
#GOGOSTART
11201100,
11202200,
11201100,
11202200,
11201200,
11202100,
11201200,
11202100,
10201120,
10201120,
10201120,
10201120,
3333,
30303333,//62
#GOGOEND
3,
,
,
,
#END

COURSE:Easy
LEVEL:3
BALLOON:8,15
SCOREINIT:630
SCOREDIFF:170
#START
300000000000000000600000000008000000000000000000,
300000000000000000600000000008000000000000000000,
300000000000000000600000000008000000000000000000,
300000000000300000600000000000000008000000000000,
1011,
12,
1011,
12,
1011,
12,
1011,
12,
12,
1021,
7,
8,
12,
1021,
11,
1,//20
#GOGOSTART
1110,
2220,
1110,
2220,
1120,
2220,
1120,
2220,
1202,
1202,
1202,
1202,
11,
1111,//34
#GOGOEND
1,
22,
2,
2,
22,
2220,
2,
2,
7,
0008,
300000000000000000600000000008000000000000000000,
300000000000000000600000000008000000000000000000,
300000000000000000600000000008000000000000000000,
3333,//48
#GOGOSTART
1110,
2220,
1110,
2220,
1210,
2220,
1210,
2220,
1202,
1202,
1202,
1202,
33,
3333,//62
#GOGOEND
3,
,
,
,
#END
