//TJADB Project
TITLE:Kagerou Daze
TITLEJA:カゲロウデイズ
SUBTITLE:--Jin feat. IA & Hatsune Miku
SUBTITLEJA:じん
BPM:200
WAVE:Kagerou Daze.ogg
OFFSET:-1.614
DEMOSTART:59.205

COURSE:Edit
LEVEL:8
SCOREINIT:480
SCOREDIFF:120
#START
,
00212120,
,
00212120,
,
00212120,
,
0223,
#GOGOSTART
1011202010221020,
1011201010201020,
1011202010221020,
1011201010102020,
1011202010221020,
1011201010201020,
1011202010221020,
1020102210102000,
#GOGOEND
10220120,
11220120,
10220120,
11220120,
10201022,
1022102010002000,
10201022,
1022102030004000,
10220120,
11220120,
10220120,
11220120,
10201022,
1022102010002000,
1000202010222020,
1011201010004000,
1000100010221020,
1020100012102000,
1000100010221020,
1020100011202000,
1000100010221020,
1020100012102010,
1000100010221020,
1020100011202000,
1000100011201020,
1000102011201020,
1020100011201020,
1000102011201020,
1020100010201120,
1020112010202000,
2210102210102210,
1020111120000000,
#GOGOSTART
1011201010112010,
1022102210202022,
1011201010112010,
1022102210202000,
1001201010221020,
1001201010221020,
1001201010221020,
1011221010222222,
1011201010112010,
1022102210202022,
1001201010012010,
1022102210202000,
1001201010221020,
1001201010221020,
1001201010012010,
1011221020112000,
#GOGOEND
1000200020102210,
0011221000101011,
2020111020201110,
21010111,
2210221022112222,
11010111,
1002100210021122,
1122112211112222,
11111121,
1011201020222010,
0010201010112010,
11201023,
0020101020222030,
0020101020222030,
0020112010201120,
100000000000500000000000000000000008000000000000,
10220120,
11220120,
10220120,
11220120,
10201022,
1022102010002000,
10201022,
1022102010002000,
10220120,
11220120,
10220120,
11220120,
10201022,
1022102010002000,
10201022,
3330,
#END

COURSE:Oni
LEVEL:7
SCOREINIT:630
SCOREDIFF:168
#START
22022202,
2,
22022202,
2,
22022202,
2,
22022202,
1220,
#GOGOSTART
10221212,
11221212,
10221212,
11221122,
10221212,
11221212,
10221212,
1010202010222000,
#GOGOEND
10221120,
1000202010002011,
10021002,
1000001110102020,
500000000000000000000000000000000008000000000000,
00010122,
500000000000000000000000000000000008000000000000,
,
10221120,
1000202010002011,
10021002,
1000001110102020,
500000000000000000000008000000000000000000000000,
00011221,
1000201110102011,
11211000,
500000000000000000000000000000000000000008000000,
01111122,
500000000000000000000000000000000000000008000000,
01111122,
10102011,
10112011,
100000100000000000500000000000000000000008000000,
,
500000000000000000000000000000000000000008000000,
0011101010102020,
500000000000000000000000000000000000000008000000,
0011101010102020,
10201022,
10221022,
30334044,
3330,
#GOGOSTART
1011101010001000,
1011101010002020,
10221020,
12121000,
3000101010202011,
1000101010202011,
1000101010202011,
1000101010222000,
10011121,
12121022,
10221020,
12121000,
3000101010202011,
1000101010202011,
10201022,
12121040,
#GOGOEND
10202121,
0010201000102011,
1000201110002011,
11010120,
1110100022202000,
11010210,
1011101110002000,
600000000000000000000000000000000000000000000008,
00201120,
1010202000112000,
10201120,
1010202000112000,
1000202000112000,
1000202000112000,
21212121,
100000000000500000000000000000000008000000000000,
10111022,
1000101010002011,
10021002,
1000001110102020,
500000000000000000000000000008000000000000000000,
00010122,
500000000000000000000000000008000000000000000000,
,
10111020,
1000101010002011,
10021002,
1000001110102020,
500000000000000000000000000008000000000000000000,
,
10201022,
3330,
#END

COURSE:Hard
LEVEL:5
SCOREINIT:580
SCOREDIFF:158
#START
22022202,
2,
22022202,
2,
22022202,
2,
22022202,
1220,
#GOGOSTART
10221010,
11101022,
10221010,
11101022,
10221010,
11101022,
10221010,
12101000,
#GOGOEND
10111020,
10111020,
10011001,
10011011,
500000000000000000000000000000000008000000000000,
00010121,
500000000000000000000000000000000008000000000000,
,
10111020,
10111021,
10011001,
10011011,
500000000000000000000008000000000000000000000000,
00011111,
10221022,
1110,
500000000000000000000000000000000000000008000000,
01111022,
500000000000000000000000000000000000000008000000,
01111022,
10101011,
10222011,
100000100000000000500000000000000000000008000000,
,
500000000000000000000000000000000000000008000000,
01111022,
500000000000000000000000000000000000000008000000,
01111022,
10102011,
10222011,
10101120,
3340,
#GOGOSTART
10111010,
22202011,
10111020,
11111000,
30111020,
30111020,
30111020,
3330,
10111010,
22202011,
10111020,
11111000,
30111020,
30111020,
30403011,
10112040,
#GOGOEND
10202021,
01110120,
1210,
11010120,
11102220,
11010120,
1210,
600000000000000000000000000000000000000000000008,
00201120,
10110120,
10201120,
10110120,
10110120,
10110120,
1111,
100000000000500000000000000000000008000000000000,
10111021,
10111021,
10011001,
10011121,
500000000000000000000000000008000000000000000000,
00011121,
500000000000000000000000000008000000000000000000,
,
10111020,
10111021,
10011001,
10011121,
500000000000000000000000000008000000000000000000,
,
10201022,
3330,
#END

COURSE:Normal
LEVEL:5
BALLOON:10,11
SCOREINIT:940
SCOREDIFF:328
#START
#SCROLL 0.8
,
,
,
,
,
,
,
,
#GOGOSTART
11,
1122,
11,
1122,
11,
1122,
11,
1110,
#GOGOEND
1,
2,
12,
10001110,
500000000000000000000000000000000008000000000000,
00001110,
500000000000000000000000000000000008000000000000,
,
1,
2,
12,
10001110,
500000000000000000000000000000000008000000000000,
,
11,
10111000,
500000000000000000000000000000000008000000000000,
0111,
500000000000000000000000000000000008000000000000,
0111,
12,
10101011,
100000000000000000500000000000000000000000000008,
,
500000000000000000000000000000000008000000000000,
0111,
500000000000000000000000000000000008000000000000,
0111,
12,
10111000,
7,
08,
#GOGOSTART
12,
11102000,
12,
11102000,
30111000,
30111000,
30111000,
30111000,
12,
11102000,
12,
11102000,
30111000,
30111000,
30111000,
11103040,
#GOGOEND
1,
1,
11,
500000000000000000000000000008000000000000000000,
1210,
1210,
11,
9,
09,
8,
12,
12,
1110,
1110,
10101110,
500000000000000000000000000008000000000000000000,
1,
2,
12,
10001120,
500000000000000000000000000008000000000000000000,
00001120,
500000000000000000000000000008000000000000000000,
,
1,
2,
12,
10001120,
500000000000000000000000000008000000000000000000,
,
1120,
3330,
#END

COURSE:Easy
LEVEL:3
BALLOON:8,10
SCOREINIT:660
SCOREDIFF:258
#START
#SCROLL 0.8
,
,
,
,
,
,
,
,
#GOGOSTART
11,
1110,
11,
1110,
11,
1110,
11,
1110,
#GOGOEND
1,
2,
11,
1011,
500000000000000000000000000000000008000000000000,
0011,
500000000000000000000000000000000008000000000000,
,
1,
2,
11,
1011,
500000000000000000000000000000000008000000000000,
,
12,
1110,
500000000000000000000000000000000008000000000000,
0110,
500000000000000000000000000000000008000000000000,
0110,
12,
1110,
100000000000000000500000000000000000000000000008,
,
500000000000000000000000000000000008000000000000,
0110,
500000000000000000000000000000000008000000000000,
0110,
12,
1120,
7,
08,
#GOGOSTART
11,
1110,
11,
1110,
1110,
1110,
1120,
1120,
33,
3330,
33,
3330,
1110,
1110,
1120,
1120,
#GOGOEND
1,
1,
12,
500000000000000000000000000008000000000000000000,
1,
1,
1120,
9,
,
8,
1,
1,
12,
12,
1110,
500000000000000000000000000008000000000000000000,
1,
2,
11,
1012,
500000000000000000000000000008000000000000000000,
0012,
500000000000000000000000000008000000000000000000,
,
1,
2,
11,
1012,
500000000000000000000000000008000000000000000000,
,
11,
3330,
#END
