//TJADB Project
TITLE:Monster Hunter 4 Medley
TITLEJA:モンスターハンター4 メドレー
SUBTITLE:--Marika Suzuki/Monster Hunter 4
BPM:104.21
WAVE:Monster Hunter 4 Medley.ogg
OFFSET:-2.631
DEMOSTART:2.593

COURSE:Oni
LEVEL:8
BALLOON:15,5,8,3,5
SCOREINIT:440
SCOREDIFF:100
#START
#SCROLL 1.01
100000101000500000000000000080000000100010001000,
#BPMCHANGE 108.3
#SCROLL 0.98
500000000080000010001000100000000000100000000000,
#BPMCHANGE 104.4
#SCROLL 1.01
100010002000000010002000200000000000200000000000,
#BPMCHANGE 109.23
#SCROLL 0.97
700000000000000000000000000000000008000000000000,
#BPMCHANGE 105.07
#SCROLL 1.01
100000101000500000000000000080000000100010001000,
#BPMCHANGE 106.92
#SCROLL 0.99
#MEASURE 15/16
500000000008000020002000
#BPMCHANGE 106.92
200000000000000000,
#BPMCHANGE 103.1
#SCROLL 1.03
#MEASURE 4/4
100020002000000010002000200000000000200000000000,
#BPMCHANGE 108.23
#SCROLL 0.98
600000000000000000000000000080000000000000000000,
#BPMCHANGE 99.09
#SCROLL 0.9
#MEASURE 6/4
100001010000000000000000
#BPMCHANGE 86.61
#SCROLL 1.03
300000000000300000000000300000000000100010001000,
#BPMCHANGE 83.65
#SCROLL 1.07
#MEASURE 4/4
100000000000100000000000100010002000100020002000,
#BPMCHANGE 137.58
#SCROLL 1.01
300000000000300000000000
#BPMCHANGE 141.11
#SCROLL 0.99
400000000000400000000000,
#BPMCHANGE 146.09
#SCROLL 0.96
300000000000400000000000
#BPMCHANGE 136.67
#SCROLL 1.02
400000000000400000000000,
#BPMCHANGE 141.43
#SCROLL 0.99
#GOGOSTART
#MEASURE 3/4
100000100100200000100100200000200000,
#BPMCHANGE 143.89
#SCROLL 0.97
100000200100200000200100200000200000,
#BPMCHANGE 140.31
#SCROLL 1
100000100100200000100100200000100000,
#BPMCHANGE 139.91
100000100100200100200200100100200200,
#GOGOEND
200000000000200000000000200000200200,
#BPMCHANGE 133.94
#SCROLL 1.04
200000000000200000000000200200200000,
#BPMCHANGE 145.75
#SCROLL 0.96
200000000000200000000000200000200200,
#BPMCHANGE 137.58
#SCROLL 1.01
200000000000200000000000200000200200,
#BPMCHANGE 143.89
#SCROLL 0.97
100000100100200000100100200000100000,
#BPMCHANGE 136.52
#SCROLL 1.02
000000400000000000400000000000000000,
#BPMCHANGE 140.62
#SCROLL 0.99
100000200200100000200200100000100000,
#BPMCHANGE 142.24
#SCROLL 0.98
000000400000000000400000000000000000,
#BPMCHANGE 139.13
#SCROLL 1
300000000000100000000000100000100100,
#BPMCHANGE 141.35
#SCROLL 0.99
200000000000100000100100100000100100,
#BPMCHANGE 137.99
#SCROLL 1.01
200000000100200000200000200000200200,
#BPMCHANGE 142.62
#SCROLL 0.98
500000000000000000000080000000000000,
#BPMCHANGE 138.51
#SCROLL 1.01
300000000000100000000000100000100100,
#BPMCHANGE 140.78
#SCROLL 0.99
200000000000100000100100100000100100,
#BPMCHANGE 140.47
200000000100200000200000200200200000,
#BPMCHANGE 139.36
#SCROLL 1
100000100100200200100100200200100100,
#BPMCHANGE 141.59
#SCROLL 0.99
700000000000008000000000100000200000,
#BPMCHANGE 141.27
700000000000000000000008000000000000,
#BPMCHANGE 138.12
#SCROLL 1.01
700000000800000000100000100000200000,
#BPMCHANGE 140.31
#SCROLL 1
400000000000400000000000400000000000,
#BPMCHANGE 137.66
#SCROLL 1.01
600000000000000080000000100000100000,
#BPMCHANGE 142.24
#SCROLL 0.98
100000000000000000000000100000000000,
#BPMCHANGE 141.35
#SCROLL 0.99
200000002000100010001000200000000000,
#BPMCHANGE 140.55
400000000000000000000000000000000000,
#MEASURE 4/4
#BPMCHANGE 149.66
#SCROLL 0.96
300000100100100000100100100000200000200100100000,
#BPMCHANGE 145.13
#SCROLL 0.99
100100200000200000200100200000200000200200200000,
100000100100200000100100200000100000200100100000,
#BPMCHANGE 145.51
100100200000200000200100200000100000200200200000,
#BPMCHANGE 144.56
300000100100100000100100100000200000200100100000,
#BPMCHANGE 144.68
100100200000200000200100200000200000200200200000,
#BPMCHANGE 145.58
100000100100200000100100200000200000200100100000,
#BPMCHANGE 144.75
100100200000200000200100100000100000100100200000,
#BPMCHANGE 143.99
#SCROLL 1
400000000000000000400000000000100000200000200000,
#BPMCHANGE 146.09
#SCROLL 0.98
100100200000100000200100100000100000200000000000,
#BPMCHANGE 144.12
#SCROLL 1
400000000000000000400000000000100000200000200000,
#BPMCHANGE 145.83
#SCROLL 0.99
100100200000100000200100100000100000200000000000,
#BPMCHANGE 141.11
#SCROLL 1.02
100000000000000000000000
#BPMCHANGE 134.23
#SCROLL 1.07
100010001000
#BPMCHANGE 137.35
#SCROLL 1.05
100000000000,
#BPMCHANGE 146.48
#SCROLL 0.98
300000100100000100100000100100100000100100100000,
#BPMCHANGE 147.13
100000100200000200100000100100200000200100100000,
#BPMCHANGE 145.58
#SCROLL 0.99
100000100100000100100000100100100000100100100000,
#BPMCHANGE 145.32
100000100200000200100000100100200000200100100000,
#BPMCHANGE 141.95
#SCROLL 1.01
400000100100000100100000100100100000100100100000,
#BPMCHANGE 142.07
100000100100000200200000100200100000100200100000,
#BPMCHANGE 144.24
#SCROLL 1
100000100100000100100000100100100000100100100000,
#BPMCHANGE 143.55
500000000000000080000000700000000000008000000000,
#BPMCHANGE 139.56
#SCROLL 1.03
400000400000100100200000
#BPMCHANGE 148.19
#SCROLL 0.97
100000200100100000100000,
#BPMCHANGE 150.48
#SCROLL 0.96
000000100000200000100100
#BPMCHANGE 147
#SCROLL 0.98
100000100100100000000000,
#BPMCHANGE 142.5
#SCROLL 1.01
400000400000100100200000100000200100100000100000,
#BPMCHANGE 144.37
#SCROLL 1
000000100000200000000000100000100100100000000000,
#GOGOSTART
#BPMCHANGE 145.32
#SCROLL 0.99
100100100200200000100100100200200000100100100000,
#BPMCHANGE 144.81
100100100200200000100100100200200000100100100000,
#BPMCHANGE 146.09
#SCROLL 0.98
100100200200100000100100200200100000100100100000,
#BPMCHANGE 145.32
#SCROLL 0.99
100100200200100000100100200200100000100200100000,
#BPMCHANGE 144.94
100200200100100000100200200100100000100100100000,
#BPMCHANGE 142.44
#SCROLL 1.01
100200200100100000100200200100100000100100100000,
#BPMCHANGE 145.26
#SCROLL 0.99
200200100100100000200200100100100000100100100000,
#BPMCHANGE 146.93
#SCROLL 0.98
200200100100100000200200100100100000200100200000,
#BPMCHANGE 121.6
#SCROLL 1.18
200000000000000000000000000000000000000000000000,
#GOGOEND
#BPMCHANGE 134.45
#SCROLL 0.99
300000000100100000100000100000000100100000100000,
#BPMCHANGE 136
#SCROLL 0.98
100000000100200000100000100000000100200000100000,
#BPMCHANGE 132.51
#SCROLL 1.01
100000000100200000100000100000100100100000000000,
#BPMCHANGE 133.1
#SCROLL 1
100000000100200000100000100000200200200000000000,
#BPMCHANGE 131.56
#SCROLL 1.01
300000000100200000100000100100000100200000100000,
#BPMCHANGE 134.56
#SCROLL 0.99
100000000100200000100000200000500000000080000000,
#BPMCHANGE 135.55
#SCROLL 0.98
300000000100200000100000100100000100200000100000,
#BPMCHANGE 134.73
#SCROLL 0.99
100000000100200000100000100100100100100100100000,
#BPMCHANGE 133.26
#SCROLL 1
300000000100200000100000100100000100200000100000,
#BPMCHANGE 130.94
#SCROLL 1.02
200000000100200000100000100100000100200000100000,
#BPMCHANGE 132.41
#SCROLL 1.01
400000000100200000100100200000100200000200200000,
#BPMCHANGE 138.85
#SCROLL 0.96
100000000100200000100100200000100100200200200000,
#BPMCHANGE 134.67
#SCROLL 0.99
400000000100200000100100200000100200000200200000,
#BPMCHANGE 133.58
#SCROLL 1
200000000100200000100000200200200200200000200000,
#BPMCHANGE 134.56
#SCROLL 0.99
300000300000000000100100100000100000000000100000,
#MEASURE 6/4
#BPMCHANGE 132.72
#SCROLL 1
400000400000000000200200
#BPMCHANGE 125.66
#SCROLL 1.06
200000000000000000000000000000000000000000000000,
#MEASURE 4/4
#GOGOSTART
#BPMCHANGE 142.32
#SCROLL 0.99
100000200000100000200000100100200000200000000000,
#BPMCHANGE 140.8
#SCROLL 1
200000000000100000100000000000100100200000100000,
#BPMCHANGE 140.92
200000000000100000100000000000200200100000100000,
#BPMCHANGE 141.33
100100200000200200100000100100200000200200100000,
#BPMCHANGE 140.4
100000200000100000200000200000000000000000000000,
#BPMCHANGE 142.87
#SCROLL 0.99
000000300000000000000000000000000000000000000000,
#BPMCHANGE 141.95
100000100200000100200000200000000000300000000000,
#GOGOEND
#END

COURSE:Hard
LEVEL:7
BALLOON:10,4,6,3,4
#START
#SCROLL 0.99
100000101000500000000000
#BPMCHANGE 104.9
#SCROLL 1
000008000000100010001000,
#BPMCHANGE 105
500000000008000010001000100000000000100000000000,
#BPMCHANGE 104.03
111022200200,
#BPMCHANGE 108.9
#SCROLL 0.97
7008,
#BPMCHANGE 106
#SCROLL 0.99
100000101000500000000000000008000000100010001000,
#MEASURE 23/24
#BPMCHANGE 105.7
5000000000080000100010001000000000000000000000,
#MEASURE 4/4
#BPMCHANGE 106
111022200200,
#BPMCHANGE 108
#SCROLL 0.98
600000000000000000000000000008000000000000000000,
#MEASURE 6/4
#BPMCHANGE 83
#SCROLL 1
101100
#BPMCHANGE 130
#SCROLL 0.64
000000
#BPMCHANGE 86
#SCROLL 0.97
300000300000
#BPMCHANGE 87
#SCROLL 0.96
300000
#BPMCHANGE 81
#SCROLL 1.03
101010,
#MEASURE 4/4
#BPMCHANGE 85
#SCROLL 0.98
100100
#BPMCHANGE 83.8
#SCROLL 0.99
111222,
#BPMCHANGE 138
#SCROLL 1
3
#BPMCHANGE 137.8
344,
#BPMCHANGE 145.2
3344,//12
#GOGOSTART
#MEASURE 3/4
#BPMCHANGE 140.2
101110111010,
102220222010,
101110111010,
#BPMCHANGE 141.2
101110222022,//16
#GOGOEND
200020002022,
#BPMCHANGE 140.6
202022,
#BPMCHANGE 140.2
200020002022,
200020002022,
201110101010,
040400,
101110101010,
040400,
301,
101,
100010101022,
2,
#BPMCHANGE 140.1
301,
101,
100010101110,
101110111010,
700811,
708,
708111,
444,
600000000000000008000000100000100000,
101,
202111200,
4,
#MEASURE 4/4
#BPMCHANGE 144.5
3011101110001110,
#BPMCHANGE 144.8
2220001000101000,
#BPMCHANGE 145.6
3011101110001110,
#BPMCHANGE 152
2220
#BPMCHANGE 149
0010
#BPMCHANGE 147
00101000,
#BPMCHANGE 145.2
4011102220001110,
2220001000101110,
3011102220001110,
2220001000101110,
40040011,
1110101110101000,
40040011,
1110201110202000,
#BPMCHANGE 138
#SCROLL 1.05
100000
#BPMCHANGE 135
#SCROLL 1.07
111100,
#BPMCHANGE 145
#SCROLL 1
3000001000101110,
1000001000111000,
1000001000101110,
#BPMCHANGE 146.3
#SCROLL 0.99
1000001000111000,
#BPMCHANGE 144
#SCROLL 1
4000001000101110,
1000001000111000,
1000001000101110,
#BPMCHANGE 142
#SCROLL 1.02
500000000000000008000000700000000000000000800000,
4040
#BPMCHANGE 147
#SCROLL 0.99
111010222010,
#BPMCHANGE 149
#SCROLL 0.98
0010100010111000,
#BPMCHANGE 142
#SCROLL 1.02
4040111010222010,
#BPMCHANGE 144.2
#SCROLL 1.01
00101000
#BPMCHANGE 143.6
10111000,//65
#GOGOSTART
#BPMCHANGE 143.2
1110201110201110,
#BPMCHANGE 144.5
#SCROLL 1
1110201110201000,
#BPMCHANGE 146.8
#SCROLL 0.99
1110201110201110,
100100100000200000100100100000200000500008000000,
#BPMCHANGE 145.3
#SCROLL 1
1110201110201110,
#BPMCHANGE 144.8
1110201110201000,
#BPMCHANGE 143.7
#SCROLL 1.01
1110201110201110,
#BPMCHANGE 143
#SCROLL 1.015
1110201110202220,
#BPMCHANGE 120
#SCROLL 1.21
2,//74
#BPMCHANGE 136
#SCROLL 0.99
#GOGOEND
3001101010011000,
#BPMCHANGE 137
1001101010011000,
#BPMCHANGE 132
#SCROLL 1.02
1001101010111000,
#BPMCHANGE 132.1
1001101010222000,
#BPMCHANGE 134.7
#SCROLL 1
3001101011011010,
1001101010000000,
#BPMCHANGE 135
3001101011011010,
1001101011101110,
#BPMCHANGE 133.4
#SCROLL 1.01
3001101011011010,
#BPMCHANGE 131.9
#SCROLL 1.02
1001101011011010,
3000001011101000,
#BPMCHANGE 135.8
#SCROLL 0.99
1000001022202000,
#BPMCHANGE 135
#SCROLL 1
1000001011101000,
1000001022202000,
#BPMCHANGE 133
#SCROLL 1.015
1010001110100010,
#MEASURE 6/4
#BPMCHANGE 131
#SCROLL 1.03
20200022200000000000,//90
#MEASURE 4/4
#BPMCHANGE 140.9
#SCROLL 0.99
#GOGOSTART
1212,
10210122,
10210122,
1110222011102220,
12122000,
03000000,
#BPMCHANGE 140
#SCROLL 1
1011011020003000,//97
#GOGOEND
,
,
#END

COURSE:Normal
LEVEL:5
BALLOON:6,5,5,5,3
#START
#SCROLL 0.99
300000000000600000000000
#BPMCHANGE 104.9
000000000008000000000000,
#BPMCHANGE 105
600000000008000000000000300000000000300000000000,
#BPMCHANGE 104.03
3033,
#BPMCHANGE 108.9
#SCROLL 0.97
7008,
#BPMCHANGE 106
#SCROLL 0.99
100000000000600000000000000000000008000000000000,
#MEASURE 23/24
#BPMCHANGE 105.7
6000000000080000000000003000000000000000000000,
#MEASURE 4/4
#BPMCHANGE 106
3034,
#BPMCHANGE 108
#SCROLL 0.97
600000000000000000000000000008000000000000000000,
#MEASURE 6/4
#BPMCHANGE 83
3
#BPMCHANGE 130
#SCROLL 0.64
0
#BPMCHANGE 86
#SCROLL 0.97
33
#BPMCHANGE 87
#SCROLL 0.96
3
#BPMCHANGE 81
#SCROLL 1.03
3,
#MEASURE 4/4
#BPMCHANGE 85
#SCROLL 0.98
33
#BPMCHANGE 83.8
#SCROLL 0.99
33,
#BPMCHANGE 138
#SCROLL 1.01
3
#BPMCHANGE 137.8
#SCROLL 1.02
344,
#BPMCHANGE 145.2
#SCROLL 0.97
3344,//12
#GOGOSTART
#MEASURE 3/4
#BPMCHANGE 140.2
#SCROLL 1
111010,
111010,
111010,
#BPMCHANGE 141.2
#SCROLL 0.99
111010,//16
#GOGOEND
5,
#BPMCHANGE 140.6
#SCROLL 1
000000000000000000008000000000000000,
#BPMCHANGE 140.2
4,
11,
111,
040400,
111,
040400,
301,
101,
101115,
000000000000000008000000000000000000,
#BPMCHANGE 140.1
301,
101,
101110,
1,
708,
708,
708,
333,
600000000008000000000000100000000000,
101,
333,
4,
#MEASURE 4/4
#BPMCHANGE 144.5
30030030,
#BPMCHANGE 144.8
30030000,
#BPMCHANGE 145.6
30030030,
#BPMCHANGE 152
#SCROLL 0.95
30
#BPMCHANGE 149
#SCROLL 0.97
03
#BPMCHANGE 147
0000,
#BPMCHANGE 145.2
40040040,
40040000,
40040040,
40040000,
30040000,
10110100,
40040000,
10110010,
#BPMCHANGE 138
#SCROLL 1.05
100000000000000000000000
#BPMCHANGE 135
#SCROLL 1.07
500000000008000000000000,
#BPMCHANGE 145
#SCROLL 1
30010010,
10010010,
10010010,
#BPMCHANGE 146.3
#SCROLL 0.99
10010010,
#BPMCHANGE 144
#SCROLL 1
40010010,
10010010,
10010010,
#BPMCHANGE 142
#SCROLL 1.02
500000000000000008000000700000000000000000800000,
40
#BPMCHANGE 147
#SCROLL 0.99
101101,
#BPMCHANGE 149
#SCROLL 0.98
0110,
#BPMCHANGE 142
#SCROLL 1.02
40101101,
#BPMCHANGE 144.2
#SCROLL 1.01
01
#BPMCHANGE 143.6
10,//65
#GOGOSTART
#BPMCHANGE 143.2
11011010,
#BPMCHANGE 144.5
#SCROLL 1
11011010,
#BPMCHANGE 146.8
#SCROLL 0.99
11011010,
11022000,
#BPMCHANGE 145.3
#SCROLL 1
11011020,
#BPMCHANGE 144.8
11011020,
#BPMCHANGE 143.7
#SCROLL 1.01
11011020,
#BPMCHANGE 143
#SCROLL 1.015
11022000,
#BPMCHANGE 120
#SCROLL 1.21
4,//74
#BPMCHANGE 136
#SCROLL 0.99
#GOGOEND
31,
#BPMCHANGE 137
11,
#BPMCHANGE 132
#SCROLL 1.02
10101110,
#BPMCHANGE 132.1
10101110,
#BPMCHANGE 134.7
#SCROLL 1
3111,
10111000,
#BPMCHANGE 135
3111,
100000000000100000100000500000000008000000000000,
#BPMCHANGE 133.4
#SCROLL 1.01
3111,
#BPMCHANGE 131.9
#SCROLL 1.02
10111000,
30010011,
#BPMCHANGE 135.8
#SCROLL 0.99
11,
#SCROLL 1
#BPMCHANGE 135
10010011,
11,
#BPMCHANGE 133
#SCROLL 1.015
11001100,
#MEASURE 6/4
#BPMCHANGE 131
#SCROLL 1.03
220220000000,//90
#MEASURE 4/4
#BPMCHANGE 140.9
#SCROLL 0.99
#GOGOSTART
1111,
10110010,
10110010,
500008000000500008000000500008000000500008000000,
1120,
03000000,
#BPMCHANGE 140
#SCROLL 1
0003,//97
#GOGOEND
,
,
#END

COURSE:Easy
LEVEL:3
BALLOON:5,6,3,3,3
#START
#SCROLL 0.99
300000000000600000000000
#BPMCHANGE 104.9
#SCROLL 1
000000000000000000000008,
#BPMCHANGE 105
0033,
#BPMCHANGE 104.03
600000000000000000000000000000000008000000000000,
#BPMCHANGE 108.9
#SCROLL 0.97
7008,
#BPMCHANGE 106
#SCROLL 0.99
300000000000500000000000000000000000000000000008,
#MEASURE 23/24
#BPMCHANGE 105.7
00000000000030000000000,
#MEASURE 4/4
#BPMCHANGE 106
600000000000000000000000000000000008000000000000,
#BPMCHANGE 108
#SCROLL 0.97
7008,
#MEASURE 6/4
#BPMCHANGE 83
#SCROLL 1
3
#BPMCHANGE 130
#SCROLL 0.64
0
#BPMCHANGE 86
#SCROLL 0.97
33
#BPMCHANGE 87
#SCROLL 0.96
3
#BPMCHANGE 81
#SCROLL 1.03
3,
#MEASURE 4/4
#BPMCHANGE 85
#SCROLL 0.98
33
#BPMCHANGE 83.8
#SCROLL 0.99
33,
#BPMCHANGE 138
#SCROLL 1.01
3
#BPMCHANGE 137.8
#SCROLL 1.02
030,
#BPMCHANGE 145.2
#SCROLL 0.97
33,//12
#GOGOSTART
#MEASURE 3/4
#BPMCHANGE 140.2
#SCROLL 1
11,
1,
11,
#BPMCHANGE 141.2
#SCROLL 0.99
1,//16
#GOGOEND
5,
#BPMCHANGE 140.6
#SCROLL 1
000000000000000000000000000000008000,
#BPMCHANGE 140.2
,
,
1,
040400,
1,
040400,
3,
101,
1,
,
#BPMCHANGE 140.1
3,
101,
1,
,
708,
708,
708,
333,
6,
000000000000000008000000000000000000,
333,
3,
#MEASURE 4/4
#BPMCHANGE 144.5
30030000,
#BPMCHANGE 144.8
30030000,
#BPMCHANGE 145.6
30030000,
#BPMCHANGE 152
#SCROLL 0.95
30
#BPMCHANGE 149
#SCROLL 0.97
03
#BPMCHANGE 147
0030,
#BPMCHANGE 145.2
30030000,
30030000,
30030000,
30030030,
30040000,
10010000,
30040000,
10010000,
#BPMCHANGE 138
#SCROLL 1.05
1
#BPMCHANGE 135
#SCROLL 1.07
0,
#BPMCHANGE 145
#SCROLL 1
3,
3003,
3,
#BPMCHANGE 146.3
#SCROLL 0.99
3,
#BPMCHANGE 144
#SCROLL 1
4,
3003,
3,
#BPMCHANGE 142
#SCROLL 1.02
3,
4
#BPMCHANGE 147
#SCROLL 0.99
010,
#BPMCHANGE 149
#SCROLL 0.98
1110,
#BPMCHANGE 142
#SCROLL 1.02
41,
#BPMCHANGE 144.2
#SCROLL 1.01
11
#BPMCHANGE 143.6
10,//65
#GOGOSTART
#BPMCHANGE 143.2
40030030,
#BPMCHANGE 144.5
#SCROLL 1
30030030,
#BPMCHANGE 146.8
#SCROLL 0.99
30030030,
30030000,
#BPMCHANGE 145.3
#SCROLL 1
40030030,
#BPMCHANGE 144.8
30030030,
#BPMCHANGE 143.7
#SCROLL 1.01
30030030,
#BPMCHANGE 143
#SCROLL 1.015
30030000,
#BPMCHANGE 120
#SCROLL 1.21
4,//74
#BPMCHANGE 136
#SCROLL 0.99
#GOGOEND
41,
#BPMCHANGE 137
11,
#BPMCHANGE 132
#SCROLL 1.02
1110,
#BPMCHANGE 132.1
1110,
#BPMCHANGE 134.7
#SCROLL 1
31,
1110,
#BPMCHANGE 135
31,
100000000000100000000000500000000008000000000000,
#BPMCHANGE 133.4
#SCROLL 1.01
31,
#BPMCHANGE 131.9
#SCROLL 1.02
1110,
3011,
#BPMCHANGE 135.8
#SCROLL 0.99
1,
#SCROLL 1
#BPMCHANGE 135
3011,
1,
#BPMCHANGE 133
#SCROLL 1.015
11,
#MEASURE 6/4
#BPMCHANGE 131
#SCROLL 1.03
220,//90
#BPMCHANGE 140.9
#SCROLL 0.99
#MEASURE 4/4
#GOGOSTART
11,
1100,
1100,
500008000000500008000000500008000000500008000000,
1110,
03000000,
#BPMCHANGE 140
#SCROLL 1
0003,//97
#GOGOEND
,
,
#END
