//TJADB Project
TITLE:Kinniku no You na Bokura ~Muscle Love Theme~
TITLEJA:筋肉のような僕ら ~マッスル愛のテーマ~
SUBTITLE:--Yoshihito Yano feat. Crab Prince/Muscle March
SUBTITLEJA:「マッスル行進曲」より
BPM:182
WAVE:Kinniku no You na Bokura Muscle Love Theme.ogg
OFFSET:-1.521
DEMOSTART:47.674

COURSE:Oni
LEVEL:8
BALLOON:26
SCOREINIT:510
SCOREDIFF:135
#START
#GOGOSTART
1022102010200020,
1020002010201011,
1022102010200020,
1020002010102011,
1022102010201011,
1022102010201011,
10430430,
00100120,//8
#GOGOEND
1010201110102010,
1010201110102010,
1010201110102020,
12211012,
1010201110102010,
1010201110102022,
1020102010102011,
12121220,
1010201110102010,
1010201110102010,
1010201110102020,
1020201010001022,
1020102010102011,
1020102010202022,
1020102010112020,
20303330,
4000100010211010,
1000102010221011,
1000100010211010,
1000102010221011,
1000100010211010,
1000102010221011,
1010201110102021,
1010201110102222,
1010201110112211,
10430430,
4030000000221000,//35
#GOGOSTART
1010201210102001,
1010202110102001,
1010201210102001,
1010202110102001,
12211121,
1022102010221020,
1111111111111111,
10403340,
1010201210102001,
1010202110102001,
1010201210102001,
1010202110202001,
12211121,
1022102010221020,
7,
08,//51
#GOGOEND
30430430,
4000300000002222,
1000201210102010,
01203030,
33,
3000000030003011,
10211121,
01211120,
10211121,
01211120,
10212122,
01221120,
1000202210102010,
01211120,//65
#GOGOSTART
1010201110102011,
1010202110102021,
1010201210102012,
1020201220102012,
2010201120102011,
2000100010002222,
1111111111111111,
1111111111112022,//73
#GOGOEND
#END

COURSE:Hard
LEVEL:6
BALLOON:16
SCOREINIT:580
SCOREDIFF:165
#START
#GOGOSTART
10101202,
12021210,
10101202,
12021210,
12121210,
12121210,
30430430,
00100120,//8
#GOGOEND
10201120,
10201220,
10201120,
12211012,
10201120,
10201220,
10101120,
10101220,
10201120,
10201220,
10201120,
12211012,
10101120,
10101220,
500000000000000000000000000000000008000000000000,
00303330,
30101110,
1000100010111000,
10101110,
1122,
10101110,
1000100010111000,
10101121,
01201120,
10112103,
40430430,
4030000000222000,//35
#GOGOSTART
30211120,
10221120,
10211120,
10221120,
10211120,
10221120,
12121120,
40403330,
30211120,
10221120,
10211120,
10221220,
10211120,
12121120,
7,
08,//51
#GOGOEND
10430430,
4000300000002220,
10201121,
01203030,
33,
3033,
10201120,
10201220,
10211120,
10211220,
10201120,
20201220,
10211120,
11201000,//65
#GOGOSTART
11211120,
11211220,
11211120,
11211220,
11211120,
12121120,
5,
000000000000000008000000000000000000200000200200,//73
#GOGOEND
,
,
,
#END

COURSE:Normal
LEVEL:5
BALLOON:7,15
SCOREINIT:820
SCOREDIFF:260
#START
#GOGOSTART
1111,
1110,
1111,
1110,
1110,
1110,
600000000000000000000000000000000000000000000008,
,//8
#GOGOEND
10101110,
10101110,
10101110,
1011,
20202220,
2220,
3333,
3330,
10101110,
10101110,
10101110,
1011,
20202220,
2220,
500000000000000000000000000000000000000000000008,
,
1122,
1110,
1122,
1110,
500000000000000000000000000000000000000000000008,
,
1122,
1110,
1111,
6,
000000000008000000000000000000000000000000000000,//35
#GOGOSTART
0033,
3011,
1033,
3011,
11,
1122,
500000000000000000000000000008000000000000000000,
4444,
3033,
3011,
1033,
3022,
21,
1122,
5,
000000000000000008000000000000000000000000000000,//51
#GOGOEND
7000000000000008,
,
11,
1033,
33,
3039,
,
09000800,
,
,
2220,
2220,
11,
1110,//65
#GOGOSTART
3033,
3011,
1033,
3022,
21,
3333,
6,
000000000000000000000000000000000008000000000000,//73
#GOGOEND
,
,
,
#END

COURSE:Easy
LEVEL:4
BALLOON:4,8
SCOREINIT:580
SCOREDIFF:193
#START
#GOGOSTART
1111,
1110,
1111,
1110,
1110,
1110,
600000000000000000000000000000000000000000000008,
,//8
#GOGOEND
11,
1110,
1110,
11,
22,
2220,
3333,
3330,
11,
1110,
1110,
11,
22,
2220,
500000000000000000000000000000000000000000000008,
,
1111,
1110,
1111,
1110,
500000000000000000000000000000000000000000000008,
,
2220,
2220,
1111,
6,
000000000008000000000000000000000000000000000000,//35
#GOGOSTART
0033,
31,
1033,
31,
11,
1111,
500000000000000000000000000008000000000000000000,
44,
3033,
31,
1033,
32,
21,
1111,
5,
000000000000000008000000000000000000000000000000,//51
#GOGOEND
7000000000000008,
,
11,
1033,
33,
3039,
,
09000800,
,
,
22,
2220,
11,
1110,//65
#GOGOSTART
3033,
31,
1033,
32,
21,
3333,
6,
000000000000000000000000000000000008000000000000,//73
#GOGOEND
,
,
,
#END
