//TJADB Project
TITLE:Mujihi na Ou
TITLEJA:無慈悲な王
SUBTITLE:--Go Shiina/GOD EATER BURST
SUBTITLEJA:「GOD EATER BURST」より
BPM:149.97
WAVE:Mujihi na Ou.ogg
OFFSET:-1.894
DEMOSTART:37.494

COURSE:Oni
LEVEL:7
BALLOON:8
SCOREINIT:640
SCOREDIFF:175
#START
#BARLINEOFF
#MEASURE 1/4
01,
#BARLINEON
#BPMCHANGE 148.79
#MEASURE 4/4
3,
#BPMCHANGE 151.52
#SCROLL 0.98
00000001,
#BPMCHANGE 150.12
#SCROLL 0.99
30202222,
#BPMCHANGE 150.2
20202222,
#BPMCHANGE 148.2
#SCROLL 1.01
10101100,
#BPMCHANGE 149.18
#SCROLL 1
1111,
#BPMCHANGE 150.43
#SCROLL 0.99
30000110,
1000000000101011,
#BPMCHANGE 150.57
10100110,
#BPMCHANGE 151.54
#SCROLL 0.98
1000100020000022,
#BPMCHANGE 147.64
#SCROLL 1.01
1010111010001110,
500000000000000000000000000000000008000000000000,
#BPMCHANGE 150.57
#SCROLL 0.99
3030111000101111,
#BPMCHANGE 154.07
#SCROLL 0.97
1010111000111000,
#BPMCHANGE 150
#SCROLL 1
3330,
30003003,
3330,
3000000030101011,
1020222010222220,
1020222010222220,
1020222010222220,
1020222010222220,
12121121,
1020102012102011,
1020102010210010,
100000200000100000200000500000000000000008000000,
3011102010102022,
1011101010002022,
1111100010102022,
1011100030304040,//31
#GOGOSTART
1111200010201022,
1111200010201022,
1111200010201022,
1111200011112000,
#BPMCHANGE 147
#SCROLL 1.02
30000110,
10200222,
#BPMCHANGE 149.38
#SCROLL 1
10200111,
#BPMCHANGE 152.74
#SCROLL 0.98
10101122,
#BPMCHANGE 145.78
#SCROLL 1.02
100000100000100100100000500000000000000008000000,
#BPMCHANGE 149.58
#SCROLL 1
700000000000000000000000080000000000100000000000,
#BPMCHANGE 150.55
#SCROLL 0.99
1010111000111110,
#BPMCHANGE 154.07
#SCROLL 0.97
1010111000101000,//43
#BPMCHANGE 150
#SCROLL 1
#GOGOEND
30303300,
30003003,
30303300,
30003344,
1020222010222220,
1020222010222220,
1020222010222220,
1020222010222220,
12121121,
1020102012102011,
1020102010210010,
100000200000100000200000500000000000000008000000,//55
#GOGOSTART
1011102010102022,
1011101010002022,
1111100010102022,
1011100030304040,
1111200010201022,
1111200010201022,
1111200010201022,
1111200011112000,//63
#GOGOEND
3,
#END

COURSE:Hard
LEVEL:6
BALLOON:30
SCOREINIT:710
SCOREDIFF:205
#START
#BARLINEOFF
#MEASURE 1/4
,
#BARLINEON
#BPMCHANGE 148.787384033203
#MEASURE 4/4
3,
#BPMCHANGE 151.515914916992
#SCROLL 0.98
10000001,
#BPMCHANGE 150.121215820313
#SCROLL 0.99
30202222,
#BPMCHANGE 150.200134277344
10202220,
#BPMCHANGE 148.201934814453
#SCROLL 1.01
10101100,
#BPMCHANGE 149.181732177734
#SCROLL 1
1111,
#BPMCHANGE 150.425323486328
#SCROLL 0.99
30000110,
10000111,
#BPMCHANGE 150.574066162109
10100110,
#BPMCHANGE 151.537734985352
#SCROLL 0.98
1111,
#BPMCHANGE 147.643966674805
#SCROLL 1.01
1010111000001110,
500000000000000000000000000000000008000000000000,
#BPMCHANGE 150.576324462891
#SCROLL 0.99
3030100000101110,
#BPMCHANGE 154.072525024414
#SCROLL 0.97
500000000000000000000000000000000008000000000000,
#BPMCHANGE 150
#SCROLL 1
3330,
30003003,
3330,
30003110,
1000222010222000,
1000222010222000,
1000222010222000,
1000222010101000,
12101120,
12101120,
12101120,
100000200000100000000000500000000000000008000000,
3011100010102000,
1011100010002000,
1011100010102000,
1011100030004000,//31
#GOGOSTART
1110200010201000,
1110200010201000,
1110200010201000,
11201120,
#BPMCHANGE 146.99577331543
#SCROLL 1.02
7,
,
#BPMCHANGE 149.379699707031
#SCROLL 1
,
#BPMCHANGE 152.744827270508
#SCROLL 0.98
08,
#BPMCHANGE 145.77897644043
#SCROLL 1.02
1010111010001110,
#BPMCHANGE 149.578186035156
#SCROLL 1
500000000000000008000000100000000000100000100000,
#BPMCHANGE 150.554794311523
#SCROLL 0.99
500000000000000008000000500000000000000008000000,
#BPMCHANGE 154.072525024414
#SCROLL 0.97
1010111010101110,//43
#BPMCHANGE 150
#SCROLL 1
#GOGOEND
30303300,
30003003,
3330,
30003330,
3000222010222000,
1000222010222000,
1000222010222000,
1022200010222000,
12101120,
12101120,
12101120,
100000200000100000000000500000000000000008000000,//55
#GOGOSTART
1110200010201000,
1110200010201000,
1110200010201000,
11201120,
1110200010201000,
1110200010201000,
1110200010201000,
1110200011102000,//63
#GOGOEND
3,
,
,
,
#END

COURSE:Normal
LEVEL:6
BALLOON:16
SCOREINIT:920
SCOREDIFF:305
#START
#BARLINEOFF
#MEASURE 1/4
,
#BARLINEON
#BPMCHANGE 148.787384033203
#MEASURE 4/4
1,
#BPMCHANGE 151.515914916992
#SCROLL 0.98
1,
#BPMCHANGE 150.121215820313
#SCROLL 0.99
1220,
#BPMCHANGE 150.200134277344
1220,
#BPMCHANGE 148.201934814453
#SCROLL 1.01
1220,
#BPMCHANGE 149.181732177734
#SCROLL 1
1220,
#BPMCHANGE 150.425323486328
#SCROLL 0.99
3220,
10202220,
#BPMCHANGE 150.574066162109
1220,
#BPMCHANGE 151.537734985352
#SCROLL 0.98
10202220,
#BPMCHANGE 147.643966674805
#SCROLL 1.01
30001110,
10001011,
#BPMCHANGE 150.576324462891
#SCROLL 0.99
10001110,
#BPMCHANGE 154.072525024414
#SCROLL 0.97
500000000000000000000000000008000000000000000000,
#BPMCHANGE 150
#SCROLL 1
30001100,
10001001,
1110,
10001110,
3110,
10101001,
1110,
1100,
1212,
1212,
1212,
1210,
30111010,
11101010,
10111010,
1110,//31
#GOGOSTART
30111010,
11101010,
10111010,
11101000,
#BPMCHANGE 146.99577331543
#SCROLL 1.02
9,
,
#BPMCHANGE 149.379699707031
#SCROLL 1
09000008,
#BPMCHANGE 152.744827270508
#SCROLL 0.98
,
#BPMCHANGE 145.77897644043
#SCROLL 1.02
10111010,
#BPMCHANGE 149.578186035156
#SCROLL 1
11101010,
#BPMCHANGE 150.554794311523
#SCROLL 0.99
11001000,
#BPMCHANGE 154.072525024414
#SCROLL 0.97
11001000,//43
#BPMCHANGE 150
#SCROLL 1
#GOGOEND
30001100,
10001001,
1110,
10001110,
3110,
10101001,
1110,
1100,
1212,
1212,
1212,
1210,//55
#GOGOSTART
30111010,
11101010,
10111010,
1110,
30111010,
11101010,
10111010,
500000000000000000000000000000000000000008000000,//63
#GOGOEND
3,
,
,
,
#END

COURSE:Easy
LEVEL:3
BALLOON:14
SCOREINIT:670
SCOREDIFF:270
#START
#BARLINEOFF
#MEASURE 1/4
,
#BARLINEON
#BPMCHANGE 148.787384033203
#MEASURE 4/4
1,
#BPMCHANGE 151.515914916992
#SCROLL 0.98
1,
#BPMCHANGE 150.121215820313
#SCROLL 0.99
1220,
#BPMCHANGE 150.200134277344
1220,
#BPMCHANGE 148.201934814453
#SCROLL 1.01
1220,
#BPMCHANGE 149.181732177734
#SCROLL 1
1220,
#BPMCHANGE 150.425323486328
#SCROLL 0.99
31,
11,
#BPMCHANGE 150.574066162109
11,
#BPMCHANGE 151.537734985352
#SCROLL 0.98
1011,
#BPMCHANGE 147.643966674805
#SCROLL 1.01
1011,
1011,
#BPMCHANGE 150.576324462891
#SCROLL 0.99
1011,
#BPMCHANGE 154.072525024414
#SCROLL 0.97
500000000000000000000000000008000000000000000000,
#BPMCHANGE 150
#SCROLL 1
3,
11,
1110,
11,
3101,
1101,
1101,
1100,
1202,
1202,
1202,
1210,
3011,
1011,
1011,
11,//31
#GOGOSTART
3011,
1011,
1011,
11,
#BPMCHANGE 146.99577331543
#SCROLL 1.02
9,
,
#BPMCHANGE 149.379699707031
#SCROLL 1
09000008,
#BPMCHANGE 152.744827270508
#SCROLL 0.98
,
#BPMCHANGE 145.77897644043
#SCROLL 1.02
1011,
#BPMCHANGE 149.578186035156
#SCROLL 1
1011,
#BPMCHANGE 150.554794311523
#SCROLL 0.99
11,
#BPMCHANGE 154.072525024414
#SCROLL 0.97
11,//43
#BPMCHANGE 150
#SCROLL 1
#GOGOEND
11,
11,
1110,
1011,
3101,
1101,
1101,
1100,
1202,
1202,
1202,
1210,//55
#GOGOSTART
3011,
1011,
1011,
11,
3011,
1011,
1011,
500000000000000000000000000008000000000000000000,//63
#GOGOEND
3,
,
,
,
#END
