//TJADB Project
TITLE:My Mine
TITLEJA:My Mine
SUBTITLE:--setzer (MintJam) feat. Tsukino Shion
SUBTITLEJA:
BPM:177
WAVE:My Mine.ogg
OFFSET:-1.562
DEMOSTART:66.308 //shinuchi:
4530/3030/2400/1520/1070

COURSE:Edit
LEVEL:9
BALLOON:16
SCOREINIT:370,1070
SCOREDIFF:85
#START
22022202,
22020202,
22022202,
02020212,
11021102,
11020212,
11021103,
0021112020122211, //8
1000201110102011,
0111201120211120,
1000201110102012,
0111201120102121,
1010222110102121,
1010222110102122,
1110221101121021,
0122212021221122, //16
1000201110102011,
0111201201221120,
1000201110102012,
0111201120102121,
2010222120102121,
2010222120102122,
2110211220121040,
000000200100100100200000200000202020200200100100, //24
20100111,
2011101000200010,
10100111,
2011101000200020,
10100111,
2011101000200010,
1000100000112210,
2030003000302211, //32
1000111000101010,
2011101000200010,
1000111000101010,
2011101000200020,
1000111000101010,
2011101000200010,
1000111000101010,
2011102010112222, //40
1000111021102011,
1010111021112000,
1010111021102011,
1010111021212010,
1000111000101010,
2011101000200020,
3,
0000000021004000, //48
#GOGOSTART
1210121011211020,
1110201102102011,
2120212022122010,
2220102202112020,
1012102010121022,
0212102012121010,
2011201020212030,
0020100040302211, //56
1210121011211022,
1011201102102011,
2120212022122010,
2222102202112020,
1012102010121022,
0212102012121010,
2011201020212030,
000000100100200100200000100020202020200200100000, //64
#GOGOEND
500000000000000000000000000000000008000000100000,
000000200000100000200200500000000000000000000008,
0010102010201120,
000000100000200000500000000000000000000008000000,
2022121120211212,
2011201121221211,
200200202020100100100100200200202020100100200100,
70000008, //72
#GOGOSTART
0000300011211020,
1110201102102011,
2120212022122010,
2220102202112020,
1012102210121022,
0212102212121010,
2011201020212030,
0020100040302211, //80
1210121011211022,
1011201102102011,
2120212022122010,
2222102202112020,
1012102210121022,
0212102212121010,
2011201020212030,
000000200100200100200000100020202020200200200200, //88
#GOGOEND
1010002210100022,
1010002200221022,
1010002210102021,
2010202220112120,
1011221022102210,
0022121022100011,
100000100200200100200000200200100100200000101010,
1022111040122212,
1,
0,
0,
0, //100
#END

COURSE:Oni
LEVEL:6
BALLOON:
SCOREINIT:440,1580
SCOREDIFF:113
#START
0202,
0202,
0202,
00200022,
0202,
0202,
00200023,
0010202011101110, //8
10201121,
0010201110102010,
01201121,
0010201110001010,
20112011,
2000101020002011,
10201121,
0010202011101122, //16
10201121,
0010201110102010,
10201121,
0010201110001010,
20112011,
20112021,
10201121,
0010201011101111, //24
10200121,
11210201,
10200121,
11210201,
10200121,
11210201,
10200121,
34040404, //32
10200121,
11210201,
10200121,
11210201,
10200121,
11210201,
10200121,
1010201010102220, //40
10201121,
01201120,
10201121,
01201120,
10100121,
11210201,
10201120,
1010201011101000, //48
#GOGOSTART
10201121,
0010201110102011,
10201121,
0010201110102011,
1010201110102010,
0010201110102011,
1010201110102030,
0030400040301110, //56
10201121,
0010201110102011,
10201121,
0010201110102011,
1010201110102010,
0010201110102011,
10201121,
0010201010111110, //64
#GOGOEND
11210101,
0010202010102210,
11210101,
01010122,
11210101,
0010202010102210,
11210101,
03333333, //72
#GOGOSTART
00301121,
0010201110102011,
10201121,
0010201110102011,
1010201110102010,
0010201110102011,
1010201110102030,
0030400030301110, //80
10201121,
0010201110102011,
10201121,
0010201110102011,
1010201110102010,
0010201110102011,
1010201110102010,
0010200010111011, //88
#GOGOEND
11201120,
11210121,
11201121,
01210022,
11201120,
11210121,
11201121,
0010101010221111,
1,
0,
0,
0, //100
#END

COURSE:Hard
LEVEL:4
BALLOON:10
SCOREINIT:520,2440
SCOREDIFF:138
#START
0202,
0202,
0202,
00200022,
0202,
0202,
00200021,
01221000, //8
10201021,
01201121,
00201021,
01200011,
20112011,
20112010,
10201125,
000000000000000000000000000000000008000000000000, //16
10201021,
01201120,
10201021,
01200011,
20112011,
20112010,
10201015,
000000000000000000000000000000000008000000000000, //24
10100120,
11210200,
10100120,
11210200,
10100120,
11210200,
10100120,
3, //32
10100120,
11210200,
10100120,
11210200,
10100120,
11210200,
10101120,
500000000000000000000000000008000000000000000000, //40
10201120,
10201120,
10201120,
10201121,
10100120,
11210200,
3,
0, //48
#GOGOSTART
10201121,
01201120,
10201121,
01201120,
10201120,
10201120,
11201121,
500000000000000000000000000008000000000000000000, //56
10201121,
01201120,
10201121,
01201120,
10201120,
10201120,
10201221,
500000000000000000000000000000000000000008000000, //64
#GOGOEND
11020201,
01201120,
11020201,
01010000,
11020201,
01201120,
11020201,
7008, //72
#GOGOSTART
00301121,
01201120,
10201121,
01201120,
10201120,
10201120,
11201221,
500000000000000000000000000008000000000000000000, //80
10201121,
01201120,
10201121,
01201120,
10201120,
10201120,
11201221,
500000000000000000000000000008000000000000000000, //88
#GOGOEND
11001100,
11020202,
11001101,
02020110,
11001100,
11020202,
11001102,
01221000,
3,
0,
0,
0, //100
#END

COURSE:Normal
LEVEL:5
BALLOON:7
SCOREINIT:570,3090
SCOREDIFF:158
#START
0202,
0202,
0202,
00200022,
0202,
0202,
0202,
0, //8
10201011,
0210,
10201011,
0210,
1212,
1212,
10101110,
500000000000000000000000000008000000000000000000, //16
10201011,
0210,
10201011,
0210,
1212,
1212,
10101110,
500000000000000000000000000000000008000000000000, //24
10100110,
10110010,
10100110,
10110000,
10100110,
10110010,
10101110,
3, //32
10100110,
10110010,
10100110,
10110000,
10100110,
10110010,
11101110,
500000000000000000000000000008000000000000000000, //40
1212,
1210,
1212,
10201110,
10100110,
10110100,
3,
0, //48
#GOGOSTART
10201110,
1110,
10201110,
1110,
1212,
10201110,
10101100,
500000000000000000000000000008000000000000000000, //56
10201110,
1110,
10201110,
1110,
1212,
10201110,
10001011,
500000000000000000000000000008000000000000000000, //64
#GOGOEND
11020201,
0110,
11020201,
01010000,
11020201,
0110,
11020200,
7008, //72
#GOGOSTART
0301,
1110,
10201110,
1110,
1212,
10201110,
10101100,
500000000000000000000000000008000000000000000000, //80
10201110,
1110,
10201110,
1110,
1212,
10201110,
10001011,
500000000000000000000000000008000000000000000000, //88
#GOGOEND
11001100,
11010100,
11001101,
01010000,
11001100,
11010100,
11001101,
01101000,
3,
0,
0,
0, //100
#END

COURSE:Easy
LEVEL:4
BALLOON:6
SCOREINIT:510,4660
SCOREDIFF:155
#START
0202,
0202,
0202,
0200,
0202,
0202,
0202,
0, //8
11,
1110,
11,
1110,
11,
1110,
2200,
500000000000000000000000000008000000000000000000, //16
11,
1110,
11,
1110,
11,
1110,
11,
1, //24
1100,
1120,
1100,
1120,
1100,
1120,
1100,
3, //32
1100,
1120,
1100,
1120,
1100,
1120,
1100,
500000000000000000000000000008000000000000000000, //40
12,
12,
12,
12,
1100,
1120,
3,
0, //48
#GOGOSTART
1101,
12,
1101,
12,
1110,
1110,
1111,
500000000000000000000000000008000000000000000000, //56
1101,
12,
1101,
12,
1110,
1110,
1111,
500000000000000000000000000008000000000000000000, //64
#GOGOEND
12,
1110,
12,
1110,
12,
1110,
12,
7008, //72
#GOGOSTART
0301,
12,
1101,
12,
1110,
1110,
1111,
500000000000000000000000000008000000000000000000, //80
1101,
12,
1101,
12,
1110,
1110,
1111,
500000000000000000000000000008000000000000000000, //88
#GOGOEND
11,
1110,
11,
1110,
11,
1110,
11,
1110,
3,
0,
0,
0, //100
#END
