//TJADB Project
TITLE:NECOLOGY
TITLEJA:NECOLOGY
SUBTITLE:--Yuri Misumi feat. Kekero Fuchizaki
BPM:150
WAVE:NECOLOGY.ogg
OFFSET:-1.707
DEMOSTART:70.098

COURSE:Oni
LEVEL:8
BALLOON:8,5
SCOREINIT:400
SCOREDIFF:110
#START
22222222,//1
20220220,
02022022,
20220220,
02022022,
22020220,
22020220,
22020220,
22020220,
2202,
0000201121211011,//11
0020100010002011,
0020100010002011,
0020100010002011,
0020100011110210,
0010101120030010,
1011200300700000,
0000800011211200,
1010201102102010,
1010220101102020,
1010201102101102,
1022000211102020,
1010210110102010,
0110201100102020,
1010210110102010,
0110201102112000,
1010201102102201,
0010220101102020,
1010201102101102,
1022000211102020,
1010210210102010,
0110201100102020,
1010210210102010,
00070080,
1010112201102010,
1010201202102022,
1010112201102010,
1010202012020210,
1010112201102010,
1010201202102022,
1010112202201020,
1000300300000040,
3030300300004000,//43
#GOGOSTART
1010201102102010,
1010220102112010,
1010201102102010,
1011201202112010,
1010201102102010,
1010220102112010,
1010201102102010,
3000201201121120,
1010201202111020,
1010201202111020,
1020200010220110,
0010201121211000,//55
#GOGOEND
3004000020102000,
3004000020102000,
1010200010220210,
1020200201111020,
3004000020102000,
3004000020102000,
1010200010220210,
1020201010210210,
3001003001103000,
3001003001103000,
3001103002203000,
3000000020120120,
2000200220202000,
2020220200200020,
02222020,
1102112011212110,//71
#GOGOSTART
1010210102112010,
1011220110210120,
1010201122012010,
1011220202112010,
1010210102112010,
1011220110210120,
1010201122021020,
3000201201121120,
1010201202111020,
1010201202111020,
1020201120120120,
0300,//83
#GOGOEND
#END

COURSE:Hard
LEVEL:7
BALLOON:40,5
SCOREINIT:600
SCOREDIFF:145
#START
22222222,//1
20020020,
02002022,
20020020,
02002022,
20020220,
02022022,
20020220,
02022022,
2202,
0000200011011011,//11
0020200010001011,
0020200010001011,
0020200010001011,
0020200011010110,
0010101020030010,
1010200300600000,
000000000000000000000008000000000000000000000000,
1010201101101000,
1010201101101000,
1010201100100100,
1001000000102010,
0010200110102010,
0010200110102020,
0010200110102010,
000000500000000000000008000000000000000000000000,
1010201101102000,
1010201101102000,
1010201100200200,
2002000000102010,
0010200110102010,
0010200110102020,
00303303,
00030000,
1010100200202010,
1000200200202022,
1010100200202010,
1000202020020022,
1010100200202010,
1000200200202022,
1010100200202010,
1000300300000000,
3030300300000000,
#GOGOSTART
1010201101102010,
1010220010102000,
1010201101102010,
11210120,
1010201101102010,
1010220010102000,
1010201101102000,
30003303,
0600,
000000000000000000000000000000000000000008000000,
0040400040040060,
000000000000000000000000000000000008000000000000,//55
#GOGOEND
3003000000000000,
3003000000000000,
1010200010020010,
1020200101101000,
3003000000000000,
3003000000000000,
1010200010010010,
1020200101101000,
9,
,
09,
8,
22,
20000202,
0202,
2002007000008000,//71
#GOGOSTART
1010201101102010,
1010220010102000,
1010201101102010,
1010220200102000,
1010201101102010,
1010220010102000,
1010201101102000,
30003303,
0600,
000000000000000000000000000000000000000008000000,
0040400040040040,
0300,//83
#GOGOEND
,
,
,
,
#END

COURSE:Normal
LEVEL:5
BALLOON:24,5,35,5,3,3
SCOREINIT:1030
SCOREDIFF:323
#START
,//1
10010010,
10010000,
10010010,
10010000,
10010020,
10010000,
10010020,
10010000,
500000000000000000000000000008000000000000000000,
500000000000000000000000000008000000000000000000,
7,
,
8,
0,
3330,
30300600,
000000000000000000000008000000000000000000000000,
1102,
1102,
1100,
2200,
10101100,
1102,
10101100,
3,
1102,
1102,
1100,
2200,
10101101,
02,
30303303,
0,
11100020,
0202,
11100020,
0202,
11100020,
0202,
11100020,
11,
78,//43
#GOGOSTART
1110,
10111000,
1110,
11101000,
1110,
10111000,
1110,
3,
6,
000000000000000000000000000000000000000000000008,
,
,//55
#GOGOEND
3,
3,
11,
22202000,
3,
3,
11,
22202000,
9,
0,
09,
8,
22,
2220,
22,
78,//71
#GOGOSTART
1110,
10111000,
1110,
11102000,
1110,
10111000,
1110,
3,
6,
000000000000000000000000000000000008000000000000,
7878,
0300,
#GOGOEND
,
,
,
,
#END

COURSE:Easy
LEVEL:3
BALLOON:18,4,28,4,2,2
SCOREINIT:750
SCOREDIFF:230
#START
,//1
1,
11,
1,
11,
11,
1011,
11,
1011,
500000000000000000000000000008000000000000000000,
500000000000000000000000000008000000000000000000,
7,
,
8,
0,
3330,
30300600,
000000000000000000000008000000000000000000000000,
1100,
1100,
1100,
2200,
11,
1110,
500000000000000000000000000000000000000000000008,
0,
1100,
1100,
1100,
2200,
11,
1011,
500000000000000000000000000000000000000000000008,
0,
1101,
11,
1101,
11,
1101,
12,
1101,
12,
78,
#GOGOSTART
1110,
1110,
11,
1110,
1110,
1110,
11,
3,
6,
000000000000000000000000000000000000000000000008,
,
,
#GOGOEND
3,
3,
11,
2220,
3,
3,
11,
2220,
9,
0,
09,
8,
22,
2220,
22,
78,
#GOGOSTART
1110,
1110,
11,
1110,
1110,
1110,
11,
3,
6,
000000000000000000000000000000000080000000000000,
7878,
0300,
#GOGOEND
,
,
,
,
#END
