//TJADB Project
TITLE:Ninja wa Saikou
TITLEJA:忍者は最高
SUBTITLE:--Kakeru Ishihama feat. Nemu Yumemi
BPM:176
WAVE:Ninja wa Saikou.ogg
OFFSET:-2.272
DEMOSTART:60.723

COURSE:Oni
LEVEL:7
BALLOON:9,11,25,9
SCOREINIT:500
SCOREDIFF:120
#START
#MEASURE 2/4
22022011,
#MEASURE 4/4
1000201010112010,
0010201120112000,
1000201022102210,
0010101012202020,
1000201010112010,
0010201110102000,
70008001,
0010001011101000,
1022102222102010,
,
10211021,
01211020,
10211021,
20211020,
10211021,
01211020,
10211201,
0010202010002222,
1000201010222010,
0010201010222000,
33,
3000000022112000,
1000201010222010,
0010201010222000,
1000201010222010,
01221010,
10202001,
02102010,
5000000000000000000000000000000000000000000000008,
0011,
10202001,
02102010,
5000000000000000000000000000000000000000000000008,
0011,
1000200010112010,
0010201011102000,
1000200010112010,
01212020,
1010201110102010,
0010201110102011,
2010201120102022,
1022102210221020,
00000003,
#GOGOSTART
0010201120221010,
0010201120102010,
0010201120221010,
01210120,
1010201210102011,
2010201210212000,
10110103,
0022201000100030,
0010201120221010,
0010201120102010,
0010201120221010,
01210120,
1010201210102011,
2010201210212011,
2011201120112010,
3300,
7008,
0000000022022011,
#GOGOEND
1000201010112010,
0010201120112000,
1000201022102210,
0010101011202020,
1000201010112010,
0010201110102000,
7,
08,
0330,
00000001,
01000001,
0010221000102210,
01000001,
0010221000222000,
1,
22,
10110103,
0022201000100030,
#GOGOSTART
0010201120221010,
0010201120102010,
0010201120221010,
0010201120102000,
1010201210102011,
2010201210212011,
2011201120112011,
2200,
3,
2000200022022011,
#GOGOEND
1000201010112010,
0010201120112000,
1000201022102210,
0010101011202020,
1000201010112010,
0010201110102000,
70008001,
01010221,
0300,
#END

COURSE:Hard
LEVEL:5
BALLOON:7,10,18,7
#START
#MEASURE 2/4
,
#MEASURE 4/4
10201021,
01204040,
10202121,
01111222,
10201021,
01201120,
70000801,
01010000,
1022202220102010,
,
10211021,
01201020,
10211021,
20211020,
10211021,
01201020,
10211005,
08,
10211021,
01201020,
33,
30002120,
10211021,
01201020,
10211021,
01201010,
10202001,
0121,
5000000000000000000000000000000000000000000000008,
0011,
10202001,
0121,
5000000000000000000000000000000000000000000000008,
0011,
10201021,
01201020,
10201121,
01201010,
10201021,
01201020,
10101012,
12121212,
00000003,
#GOGOSTART
01201221,
01210121,
01201221,
01210120,
10201120,
10201220,
10110103,
0022201000100030,
01201221,
01210121,
01201221,
01210120,
10201120,
10201220,
20202110,
3300,
9000000000090008,
,
#GOGOEND
10201021,
01204040,
10202121,
01111222,
10201021,
01201120,
7,
08,
0330,
00000001,
01000001,
01210121,
01000001,
01210220,
1,
22,
10110103,
0022201000100030,
#GOGOSTART
01201221,
01210121,
01201221,
01210120,
10201120,
10201220,
20202110,
2200,
5,
00000800,
#GOGOEND
10201021,
01204040,
10202121,
01111222,
10201021,
01201120,
70008001,
01010220,
0300,
,
,
,
,
#END

COURSE:Normal
LEVEL:4
BALLOON:8,16
#START
#MEASURE 2/4
,
#MEASURE 4/4
10101001,
0044,
10101001,
0220,
10101001,
0022,
5,
00080000,
10100111,
,
10022001,
0120,
10022000,
1120,
10022001,
0120,
10022005,
08,
10022001,
0120,
33,
3,
10022001,
0120,
10022001,
0011,
10002001,
0120,
50000000000000000000000000000008,
0011,
10002001,
0120,
50000000000000000000000000000008,
0011,
10002001,
0120,
10101001,
0011,
12,
1022,
1111,
1111,
00000003,
#GOGOSTART
00101001,
00000003,
00101001,
01000000,
10011000,
10022000,
10110103,
00000003,
00101001,
00000003,
00101001,
,
10011000,
20022000,
10011000,
3300,
9000000000090008,
,
#GOGOEND
10101001,
0044,
10101001,
0220,
10101001,
0022,
7,
08,
0330,
00000001,
01000001,
00010001,
01000001,
00010000,
11,
22,
10110103,
00000003,
#GOGOSTART
00201011,
00000001,
00201011,
,
10011000,
20022000,
10011000,
2200,
5,
00000800,
#GOGOEND
10101001,
0044,
10101001,
0220,
10101001,
0022,
5,
00080000,
0300,
,
,
,
,
#END

COURSE:Easy
LEVEL:3
BALLOON:4,5,10,4
#START
#MEASURE 2/4
,
#MEASURE 4/4
1110,
0044,
,
,
1110,
0022,
5,
00080000,
10100101,
,
11,
22,
1,
,
11,
22,
10000005,
08,
12,
12,
33,
3,
12,
12,
11,
1011,
1,
11,
5,
8011,
1,
11,
5,
8011,
12,
1110,
10101001,
0011,
11,
1011,
1111,
1111,
00000003,
#GOGOSTART
00101001,
00000003,
00101001,
,
11,
22,
7,
80000003,
00101001,
00000003,
00101001,
,
11,
22,
11,
3300,
9000000000090008,
,
#GOGOEND
1110,
0044,
,
,
10101001,
0022,
7,
0000000000000008,
0330,
00000001,
00000001,
00010001,
00000001,
00010000,
1,
22,
7,
80000003,
#GOGOSTART
00101001,
00000001,
00101001,
,
11,
22,
11,
2200,
5,
00000800,
#GOGOEND
1110,
0044,
,
,
1110,
0022,
5,
00080000,
0300,//151
,
,
,
,
#END
