//TJADB Project
TITLE:Nightmare Survivor
TITLEJA:ナイトメア・サバイバー
SUBTITLE:--Setsuro Sakamoto
BPM:153.27
WAVE:Nightmare Survivor.ogg
OFFSET:-1.916
DEMOSTART:29.375

COURSE:Edit
LEVEL:10
BALLOON:6,6,6,6,2,60
SCOREINIT:400
SCOREDIFF:80
#START
#SCROLL 1.01
3003003000110110,
#BPMCHANGE 156.01
#SCROLL 0.99
3003003011010101,
#BPMCHANGE 153.55
#SCROLL 1.01
1003003000110110,
#MEASURE 5/4
#BPMCHANGE 155.87
#SCROLL 0.99
3003003003003030
#BPMCHANGE 160.59
#SCROLL 0.97
0000,
#GOGOSTART
#MEASURE 4/4
#BPMCHANGE 155
#SCROLL 1
2010201120112101,
2010201120110101,
2010201120112101,
2111211121112111,
2010201120112101,
2010201120110101,
2010201120112101,
2112121112122211,
2112112112112121,
2212112112121122,
100000202010100000100000202010100000100000202010,
1012012012112121,
2121212121212121,//17
#MEASURE 2/4
#GOGOEND
78,
#MEASURE 4/4
100100100100200000100000000000101010200100000100,
1111201001012101,
100100100100200000100000000000101010200100000100,
1111201012112122,
100100100100200000100000000000101010200100000100,
1111201001012101,
100100100100200000100000000000101010200100000100,
1111201012112122,
100200100100200000100000000000101010200100000100,
1211201001012101,
100200100100200000100000000000101010200100000100,
1211201012112122,
100200100100200000100000000000101010200100000100,
1211201001012101,
100200100100200000100000000000101010200100000100,
1211201112212212,//34
#GOGOSTART
1211201012112122,
100200200100200000100000000200100100200100101020,
200101020200101020200101020010102000200100200200,
1121111270008000,
1002210170008000,
1102010002122122,
1010202212212220,//41
#GOGOEND
1022112121700080,//42
#GOGOSTART
1112111211010110,
1001201001012101,
1112111210021040,
0011220011010120,
1202100101011220,
1112111221100111,
202020101010100200200100101010202020100100200200,
101010200100100200200100202010202010100200200100,
1011210110112112,
1011210110112112,
100100000100101010200000100100000100101010200200,
1221221221227080,
1011210110112112,
1011210110112112,
100100000100101010200000100100000100101010200000,
1103030303012222,//58
#GOGOEND
100100100100200000100000000000101010200100000100,
1111201001012101,
100100100100200000100000000000101010200100000100,
100100100100200000100000100200100100200100202020,
100200100100200000100000000000101010200100000200,
1211201001012102,
100200100100200000100000000000101010200100000100,//65
#GOGOSTART
2112112112112121,
1222112112112121,
101020101020100100200100100200100100200200200200,
101020101020100100200100202020101010100200200100,
100000202010100000100000202010100000100000202010,//70
#GOGOEND
7,
,
#BPMCHANGE 115.71
08,
#GOGOSTART
#BPMCHANGE 114
1103011030110300,
#GOGOEND
#END

COURSE:Oni
LEVEL:8
BALLOON:6,44
SCOREINIT:470
SCOREDIFF:123
#START
#SCROLL 1.01
3003003000000000,
#BPMCHANGE 156.01
#SCROLL 0.99
3003003000000000,
#BPMCHANGE 153.55
#SCROLL 1.01
3003003000000000,
#MEASURE 5/4
#BPMCHANGE 155.87
#SCROLL 0.99
3003003003003030
#BPMCHANGE 160.59
#SCROLL 0.97
0000,
#GOGOSTART
#MEASURE 4/4
#BPMCHANGE 155
#SCROLL 1
2010201120110110,
2010201120110101,
2010201120110110,
200000100000200000500000000008000000200000000000,
2010201120110110,
2010201120110101,
2010201120110110,
1021021021021121,
1021021021021122,
1021021021211210,
1021021021221210,
1021021021121121,
1010121212121000,//17
#MEASURE 2/4
#GOGOEND
#SCROLL 7.65
78,
#MEASURE 4/4
#SCROLL 1
1001201020020020,
2022100001012000,
1001201020020020,
1001201010102100,
1001201000102100,
1001201001012010,
1001201000102100,
500000000008000000500000000000000000000008000000,
1001201020020020,
2022100001012000,
1001201020020020,
1001201010102100,
1001201000102100,
1001201001012010,
1001201000102100,
500000000008000000500000000008000000200000200000,//34
#GOGOSTART
1101102011011020,
1101102011211020,
1101201101202211,
2121221122122100,
1101102011011020,
1101102011211020,
1101201101201120,//41
#GOGOEND
1020112011111000,//42
#GOGOSTART
1101201021012010,
1101201021012010,
1101201101201120,
0112200112112200,
1101201021012010,
1101201021012010,
1101201101202211,
1221112212212210,
3001201010012010,
1001201010112010,
1101202011012020,
200200100200200100200200100200200200500008000000,
3001201010012010,
1001201010112010,
1101202011012020,
2102020200012000,//58
#GOGOEND
1001201020020020,
2022100001012000,
1001201020020020,
1001201010102100,
1001201000102100,
1001201001012010,
1001201000102100,//65
#GOGOSTART
500000000008000000500000000008000000200000200000,
1021021021021121,
1021021021021122,
1021021021121121,
1021021021122121,//70
#GOGOEND
7,
,
#BPMCHANGE 115.71
08,
#GOGOSTART
#BPMCHANGE 114
1104011040110400,
#GOGOEND
#END

COURSE:Hard
LEVEL:7
BALLOON:12,8,24
SCOREINIT:600
#START
3003003000000000,
3003003000000000,
3003003000000000,
#MEASURE 5/4
30030030030030300000,//4
#GOGOSTART
#MEASURE 4/4
2010201020111010,
2010201020110110,
2010201020111010,
200000100000200000500000000000000008000000000000,
2010201020111010,
2010201020110110,
2010201020111010,
3003003003003030,
4004004004004040,
500000000000000000000000000008000000000000000000,
500000000000000000000000000008000000000000000000,
500000000000000000000000000008000000000000000000,
7,//17
#MEASURE 2/4
#GOGOEND
8,
#MEASURE 4/4
1001001000102000,
1000200001012000,
1001001000102000,
1000200010102100,
1001001000102000,
1001001001012000,
1001001000102000,
500000000008000000500000000000000000000008000000,
1001001000102000,
1000200001012000,
1001001000102000,
1000200010102100,
1001001000102000,
1001001001012000,
1001001000102000,
500000000008000000500000000008000000100000100000,//34
#GOGOSTART
1001001000111010,
1001201000111010,
1001201110111050,
000000000000000000000000000008000000000000000000,
1001201000111011,
1001201000111011,
500000000000000000000000000000000000000000000008,//41
#GOGOEND
0000000011111000,//42
#GOGOSTART
1002101000111010,
1002101000111010,
1002101000111030,
0010400011103000,
1002101000111011,
1002101000111011,
5,
000000000000000000000008000000000000000000000000,
1010200010112010,
1010200010112000,
1101102011011020,
7008,
1010200010112010,
1010200010112000,
1101102011011020,
500000000000000000000000000008000000000000000000,//58
#GOGOEND
1001001000102000,
1000200001012000,
1001001000102000,
1000200010102100,
1001001000112000,
1001001001012000,
1001001000112000,//65
#GOGOSTART
500000000008000000500000000008000000300000300000,
3003003003003030,
4004004004004040,
6,
000000000000000000000008000000000000000000000000,//70
#GOGOEND
7,
,
#BPMCHANGE 115
08,//73
#GOGOSTART
1103011030110300,//74
#GOGOEND
,
,
#END

COURSE:Normal
LEVEL:6
BALLOON:8,2,2,6,2,2,18
SCOREINIT:680
SCOREDIFF:183
#START
3003003000000000,
3003003000000000,
3003003000000000,
#MEASURE 5/4
30030030030030300000,//4
#GOGOSTART
#MEASURE 4/4
20202120,
20202120,
20202120,
20212120,
20202120,
20202120,
20202120,
3003003003003030,
3003003003003030,
500000000000000000000000000008000000000000000000,
500000000000000000000000000008000000000000000000,
500000000000000000000000000008000000000000000000,
7,//17
#MEASURE 2/4
#GOGOEND
8,
#MEASURE 4/4
1001001000002000,
10200120,
1001001000002000,
10200120,
1001001000002000,
1001001000002000,
1001001000002000,
500000000000000000000000000008000000000000000000,
1001001000002000,
10200120,
1001001000002000,
10200120,
1001001000002000,
1001001000002000,
1001001000002000,
500000000000000000000000000008000000000000000000,//34
#GOGOSTART
10200120,
10200120,
10200125,
000000000000000000000000000008000000000000000000,
11200120,
11200120,
500000000000000000000000000000000000000000000008,//41
#GOGOEND
00003330,//42
#GOGOSTART
10200120,
10200120,
10200125,
000000000000000000000000000008000000000000000000,
11200120,
11200120,
5,
000000000000000000000008000000000000000000000000,
11201120,
10221220,
7878,
7008,
11201120,
10221220,
7878,
600000000000000000000000000008000000000000000000,//58
#GOGOEND
1001001000002000,
10200120,
1001001000002000,
10200120,
1001001000102000,
1001001000202000,
1001001000102000,//65
#GOGOSTART
600000000000000000000000000008000000000000000000,
3003003003003030,
3003003003003030,
6,
000000000000000000000008000000000000000000000000,//70
#GOGOEND
7,
,
#BPMCHANGE 115
08,//73
#GOGOSTART
3004030040300400,//74
#GOGOEND
,//239combo
,
#END

COURSE:Easy
LEVEL:4
BALLOON:6,7,4,4,2,2,4,2,2,13
SCOREINIT:530
SCOREDIFF:120
#START
3003003000000000,
3003003000000000,
3003003000000000,
#MEASURE 5/4
70008,//4
#GOGOSTART
#MEASURE 4/4
2222,
2220,
2222,
2220,
2222,
2220,
2222,
3003003000000000,
3003003000000000,
500000000000000000000000000008000000000000000000,
500000000000000000000000000008000000000000000000,
500000000000000000000000000008000000000000000000,
7,//17
#MEASURE 2/4
#GOGOEND
8,
#MEASURE 4/4
1102,
1102,
1102,
1110,
1102,
1102,
1102,
500000000000000000000000000008000000000000000000,
1202,
1202,
1202,
1220,
1202,
1202,
1202,
500000000000000000000000000008000000000000000000,//34
#GOGOSTART
1212,
1110,
10201007,
0008,
1212,
1110,
500000000000000000000000000000000000000000000008,//41
#GOGOEND
,//42
#GOGOSTART
1212,
1110,
10201007,
0008,
1212,
1110,
5,
000000000000000000000008000000000000000000000000,
10101110,
10101110,
7878,
7008,
10101110,
10101110,
7878,
600000000000000000000000000008000000000000000000,//58
#GOGOEND
1202,
10202220,
1202,
10202220,
1202,
10202220,
1202,//65
#GOGOSTART
600000000000000000000000000000800000000000000000,
3003003000000000,
3003003000000000,
6,
000000000000000000000008000000000000000000000000,//70
#GOGOEND
7,
,
#BPMCHANGE 115
08,//73
#GOGOSTART
3004030040300400,//74
#GOGOEND
,//175combo
,
#END
