//TJADB Project
TITLE:3Q-4U-AC00
TITLEJA:3Q-4U-AC00
SUBTITLE:--Masako Oogami
BPM:168
WAVE:3Q-4U-AC00.ogg
OFFSET:-1.631
DEMOSTART:66.802

COURSE:Oni
LEVEL:7
BALLOON:5,5
SCOREINIT:520
SCOREDIFF:110
#START
10010120,
10110120,
10010120,
10110220,
10010120,
10110120,
10010120,
10110220,
10101222,
1000201000222020,
10101222,
1000201000222020,
10101222,
1000201000222020,
1110,
33,
#GOGOSTART
1110200011102011,
1010202000303000,
1110200011102011,
11220330,
1110200011102011,
1010202000303000,
1110201110201020,
1110201110400040,
0022202022202020,
2000000022202010,
#GOGOEND
0010200011102010,
0010200011102010,
0010201000102010,
0010202010102020,
1110201022102010,
1110201022202010,
0010200011102010,
0010200011102010,
0010201000102010,
0010202010102020,
1110201022102010,
1110201022222000,
1000001000001000,
0010200040004000,
1000001000001000,
0010200040004000,
1000001020002010,
1000101020002010,
5000000000000000,
8000000000102011,
#GOGOSTART
1010201110102011,
1020102000111030,
0022204000111070,
0000800000102011,
1010201110102011,
1020102000111030,
0022204000111030,
0022204000102011,
1010201110102011,
1020102000111030,
0022204000111070,
0000800000102011,
1010201110102011,
1020102000301110,
3000111110004000,
1111106000000000,
0000000000008000,
#GOGOEND
12022202,
12022202,
12022202,
1020110110202011,
#GOGOSTART
1010201110102011,
1010201110102011,
1010202011102020,
1110202000102210,
2011201020102210,
2011201020102210,
2011202010112020,
1011202000000030,
0011201120300030,
0011201120300030,
0011201120300030,
0011203000003000,
#GOGOEND
3,
#END

COURSE:Hard
LEVEL:4
BALLOON:14,3,3
SCOREINIT:660
SCOREDIFF:178
#START
10010010,
10020010,
10010010,
10020010,
10010010,
10020010,
10010010,
10020110,
10101002,
20200110,
10101002,
20200110,
10101002,
20200110,
1110,
33,
#GOGOSTART
6,
8,
6,
8,
6,
8,
9,
09,
8,
,
#GOGOEND
10201021,
01201120,
10201021,
01201120,
1,
2,
10201021,
01201120,
10201021,
01201120,
1,
2,
10010010,
02204040,
1000001000001000,
02204040,
12,
1120,
500000000000000000000000000000000000000000000008,
00000112,
#GOGOSTART
01201120,
12020111,
02220337,
00800112,
01201120,
12020111,
02220333,
04440112,
01201120,
12020111,
02220337,
00800112,
01201120,
12020333,
0000111030000000,
1110306000000000,
0000000000008000,
#GOGOEND
12,
12,
1202,
30300112,
#GOGOSTART
01201121,
01201121,
01221122,
11020112,
01201121,
01201121,
01221122,
11220003,
00304403,
00304403,
00304403,
00030030,
#GOGOEND
3,
0,
0,
#END

COURSE:Normal
LEVEL:6
BALLOON:15,4,4
SCOREINIT:890
SCOREDIFF:260
#START
10010010,
1,
10010010,
1,
10010010,
1,
10010010,
1,
1110,
2200,
1110,
2200,
1110,
2200,
11,
33,
#GOGOSTART
6,
8,
6,
8,
6,
8,
9,
00000008,
,
,
#GOGOEND
1110,
11101000,
11101010,
11101010,
2,
2,
1110,
11101000,
11101010,
11101010,
2,
2,
10010010,
0022,
10010010,
0022,
12,
1120,
500000000000000000000000000000000000000000000008,
,
#GOGOSTART
10101110,
10100111,
01110117,
08,
10101110,
10100111,
01110111,
02220000,
10101110,
10100111,
01110117,
08,
10101110,
1100,
3330,
3000006000000000,
0000000000008000,
#GOGOEND
02,
02,
1120,
30300111,
#GOGOSTART
02220111,
02220000,
10101110,
20200111,
02220111,
02220000,
10101110,
20200003,
00303003,
00303003,
00404006,
,
#GOGOEND
8,
0,
0,
#END

COURSE:Easy
LEVEL:3
BALLOON:11,3,3,3
SCOREINIT:660
SCOREDIFF:205
#START
1001,
1,
1001,
1,
1001,
1,
1001,
1,
11,
1100,
11,
1100,
11,
1100,
11,
33,
#GOGOSTART
6,
8,
6,
8,
6,
8,
9,
00000008,
,
,
#GOGOEND
11,
1110,
11,
1110,
2,
2,
11,
1110,
11,
1110,
2,
2,
1011,
0022,
1011,
0022,
12,
12,
500000000000000000000000000000000000000000000008,
,
#GOGOSTART
1110,
1100,
10101007,
08,
1110,
1100,
10101007,
08,
1110,
1100,
10101007,
08,
1110,
1100,
3330,
3000006000000000,
0000000000008000,
#GOGOEND
02,
02,
12,
3300,
#GOGOSTART
1120,
1120,
1111,
2200,
1120,
1120,
1111,
2200,
3330,
3330,
30303006,
,
#GOGOEND
8,
0,
0,
#END
