//TJADB Project
TITLE:Purupuru Simple
TITLEJA:ぷるぷるしんぷる
SUBTITLE:--Her Ghost Friend
SUBTITLEJA:Her Ghost Friend
BPM:240
WAVE:Purupuru Simple.ogg
OFFSET:-2.004
DEMOSTART:51.479

COURSE:Oni
LEVEL:8
SCOREINIT:470
SCOREDIFF:110
#START
#MEASURE 3/4
,
,
102221,
001220,
102122,
202221,
102120,
201210,
102220,
222110,
122021,
001220,
100122,
202001,
102100,
221010,
122020,
110,
121,
102210,
100222100,
122010,
121,
102210,
100222100,
122010,
122210,
122210,
122210,
122211,
102210,
100222100,
102210,
122000,
122010,
122010,
100222100,
121,
100222200,
121,
120010,
200200222,
121,
121,
120010,
121,
122010,
122010,
122010,
#SCROLL 0.5
330,
#SCROLL 1
112,
200112200,
112020,
112200100,
122,
100122100,
102021,
122100122,
112,
200112200,
112020,
112200100,
122,
100122100,
122,
110,//66
#GOGOSTART
100222100,
222100200,
100111200,
111200200,
100111200,
100112200,
100122200,
100222200,
100222100,
222100200,
100111200,
111200200,
100111200,
111200200,
111010,
3,//82
#GOGOEND
220220,
202202,
100110,
211,
110110,
212,
102101,
211,
110101,
212,
100210,
211,
110210,
212,
100110,
201101,
101101,
112,
#SCROLL 0.6
101202,
110221,
102201,
120211,
202101,
221102,
201102,
210122,
101221,
102211,
202112,
211022,
101221,
102211,
220110,
#SCROLL 1
221221,//116
#GOGOSTART
100222100,
202020100000200200,
101010200100000200,
101010100200000100,
101202,
112211,
202020200200200200,
110222,
100222100,
202020100000200200,
101010200100000200,
101010100200000200,
111,
112211,
222211,
202020200200200200,
100222100,
222100200,
101010100100000100,
202020200200200200,
101220,
122122,
202020200200200200,
111022,
100222100,
202020100000200200,
101010200100000200,
101010100200200200,
100122100,
102020100100000100,
111111,
111111,//148
#GOGOEND
3,
#END

COURSE:Hard
LEVEL:7
BALLOON:8,5
#START
#SCROLL 0.5
#MEASURE 3/4
,
,
102220,
201110,
101022,
201110,
102220,
201110,
102220,
222010,
111020,
220220,
111022,
220200,
102220,
220110,
111010,
202220,
110,
110,
220,
111000,
220,
220,
220,
111000,
111020,
222010,
111020,
222022,
002200,
111,
002200,
111000,
111000,
222020,
120,
120,
221,
110,
110000,
210,
111000,
120,
110000,
210,
222000,
222000,
222000,
330,
011,
210,
121,
221,
022,
102,
250,
000000000000000000000000000000000008,
012,
1,
112,
1,
112,
1,
220,
210,//66
#GOGOSTART
111022,
212,
222020,
121,
102220,
111020,
222010,
500000000000000000000008000000000000,
111022,
212,
222020,
121,
102220,
111020,
222010,
500000000000000000000008000000000000,//82
#GOGOEND
,
,
,
122,
500000000000000000000000000000000008,
,
,
122,
500000000000000000000000000000000008,
,
122,
500000000000000000000000000000000008,
,
112,
5,
000000000000000000000008000000000000,
101101,
110,
102220,
111000,
222200,
111110,
,
000022,
220,
000011,
110,
002220,
220,
,
,
101,
7,
08,//116
#GOGOSTART
111022,
212,
222020,
121,
102220,
111020,
222010,
500000000000000000000008000000000000,
111022,
212,
222020,
121,
102220,
111020,
222010,
500000000000000000000008000000000000,
222011,
121,
111010,
212,
201110,
222010,
111020,
500000000000000000000008000000000000,
222011,
121,
111010,
212,
201110,
222010,
111020,
7,//148
#GOGOEND
8,
,
,
,
,
#END

COURSE:Normal
LEVEL:5
BALLOON:12
#START
#SCROLL 0.5
#MEASURE 3/4
,
,
1,
2,
1,
220,
11,
1,
22,
2,
1,
2,
1,
2,
11,
1,
22,
220,
220,
110,
2,
2,
220,
110,
2,
2,
220,
110,
220,
220,
001100,
2,
001100,
220,
220,
110,
220,
220,
330,
220,
110000,
110,
110,
220,
220000,
110,
220,
110,
220,
440,
011,
110,
222,
222,
011,
102,
220,
,
011,
1,
222,
2,
111,
1,
220,
220,//66
#GOGOSTART
304,
4,
403,
3,
333,
3,
404,
4,
304,
4,
403,
3,
444,
440,
600000000000000000000000008000000000,
3,//82
#GOGOEND
,
,
,
111,
500000000000000000000000000000000008,
,
,
111,
500000000000000000000000000000000008,
,
111,
500000000000000000000000000000000008,
,
111,
#SCROLL 1
7,
#SCROLL 0.5
,
,
8,
110,
110,
220,
222,
,
002,
220,
001,
110,
022,
220,
,
,
101,
500000000000000000000000000000000008,
,//116
#GOGOSTART
304,
4,
403,
3,
333,
3,
404,
4,
304,
4,
403,
3,
444,
440,
600000000000000000008000000000000000,
3,
304,
4,
403,
3,
333,
3,
404,
4,
304,
4,
403,
3,
444,
440,
600000000000000000008000000000000000,//147
#GOGOEND
3,
#SCROLL 1
,
,
,
,
,
#END

COURSE:Easy
LEVEL:4
BALLOON:5,4,4,10
#START
#SCROLL 0.5
#MEASURE 3/4
,
,
1,
1,
1,
1,
11,
1,
11,
1,
1,
1,
1,
1,
11,
1,
11,
1,
2,
1,
2,
2,
2,
1,
2,
2,
2,
1,
2,
2,
010,
1,
01,
110,
2,
1,
110,
1,
1,
220,
1,
110,
1,
220,
2,
110,
220,
220,
2,
330,
011,
1,
110,
1,
011,
101,
150,
000000000008000000000000000000000000,
011,
1,
110,
1,
110,
1,
2,
2,//66
#GOGOSTART
306,
000000000008000000000000000000000000,
3,
3,
330,
330,
600000000000000000008000000000000000,
3,
306,
000000000008000000000000000000000000,
3,
3,
444,
4,
600000000000000000008000000000000000,
3,//82
#GOGOEND
,
,
,
1,
7,
,
8,
1,
7,
8,
1,
7,
8,
1,
7,
,
,
8,
1,
110,
110,
111,
,
002,
220,
001,
110,
022,
220,
,
,
101,
500000000000000000000000000000000008,
,//116
#GOGOSTART
306,
000000000008000000000000000000000000,
3,
3,
330,
330,
600000000000000000008000000000000000,
3,
306,
000000000008000000000000000000000000,
3,
3,
444,
4,
600000000000000000008000000000000000,
3,
306,
000000000008000000000000000000000000,
3,
3,
330,
330,
600000000000000000008000000000000000,
3,
306,
000000000008000000000000000000000000,
3,
3,
444,
4,
600000000000000000008000000000000000,//147
#GOGOEND
3,
,
,
,
,
,
#END
