//TJADB Project
TITLE:Kessen‼
TITLEJA:決戦!!
SUBTITLE:--Kenjo Itoh/Puzzle & Dragons Z
BPM:154
WAVE:Kessen!!.ogg
OFFSET:-1.808
DEMOSTART:8.033

COURSE:Oni
LEVEL:8
BALLOON:15,15,15,10,10,10,10
SCOREINIT:540
SCOREDIFF:133
#START
2020202020201120,
2020202020201120,
303030400400,
2011102110112000,
1110201110102000,
1110201210102000,
1110202110107000,
0008,
1110201110102000,
1110201210102000,
1110202110207000,
0008,
1110202111102000,
1110202111202000,
1110201111202000,
3000300040002222,
1000201000112000,
3003003040004000,
7,
8,//20
#GOGOSTART
1110202111102011,
1010211021112000,
1110201121102011,
1010211011212000,
1110201121102000,
1110202111202000,
1120211011212000,
7008,
1110202111102021,
1010211021112000,
1110201121102012,
1010211011212000,
1110201121102000,
1110202111202000,
1120211011012010,
7008,
2111211121112121,
2111211121211211,
20210250,
000000000000000000000000000000000008000000000000,//40
#GOGOEND
2020202020201120,
2020202020201120,
303030400400,
2011102110112000,//44
#GOGOSTART
1110202111102011,
1010211021112000,
1110201121102011,
1010211011212000,
1110201121102000,
1110202111202000,
1120211011212000,
7008,
1110202111102021,
1010211021112000,
1110201121102012,
1010211011212000,
1110201121102000,
1110202111202000,
1120211011012010,
7008,
2111211121112121,
2111211121211211,
20210250,
000000000000000000000000000000000008000000000000,//64
#GOGOEND
#END

COURSE:Hard
LEVEL:6
BALLOON:11,11,11,8,8,8,8
SCOREINIT:620
SCOREDIFF:150
#START
20020012,
20020012,
303030400400,
21121120,
10201120,
11210120,
11210170,
0008,
10201120,
11210120,
10210270,
0008,
1000201110002010,
1000201110002000,
10201120,
3340,
10210120,
3003003040004000,
7,
8,//20
#GOGOSTART
1000201110102000,
10211020,
1000201110102000,
10211020,
10201120,
11210120,
10210120,
7008,
1000201110102000,
1000201022202000,
1000201110102000,
1000201022202000,
10201120,
11210120,
1000201110010020,
7008,
3344,
3343,
20210250,
000000000000000000000000000000000008000000000000,//40
#GOGOEND
20020012,
20020012,
303030400400,
21121120,//44
#GOGOSTART
1000201110102000,
1000201022202000,
1000201110102000,
1000201022202000,
10201120,
11210120,
1000201011102000,
7008,
1110201110102000,
1000201022202000,
1110201110102000,
1000201022202000,
1110200010102000,
11210120,
1000201110010020,
7008,
3344,
3343,
20210250,
000000000000000000000000000000000008000000000000,//64
#GOGOEND
,
,
#END

COURSE:Normal
LEVEL:5
BALLOON:18,9,9,9,7,7,18,7,10
SCOREINIT:870
SCOREDIFF:190
#START
7,
00000008,
,
30030040,
1012,
10110010,
10010170,
0008,
1012,
10110020,
10010270,
0008,
10011001,
10011020,
1021,
3340,
10010110,
2002002020002000,
7,
8,//20
#GOGOSTART
11,
10110010,
22,
20220020,
1011,
11110222,
20110020,
7008,
11,
10110010,
22,
20220020,
1011,
11110220,
1000100010010010,
7008,
3333,
3333,
20020250,
000000000000000000000000000000000008000000000000,//40
#GOGOEND
7,
00000008,
,
30030040,//44
#GOGOSTART
11,
10110010,
22,
20220020,
1011,
11110222,
20110020,
7008,
11,
10110010,
22,
20220020,
1011,
11110220,
1000100010010010,
7008,
3333,
3333,
20020250,
000000000000000000000000000000000008000000000000,//64
#GOGOEND
,
,
#END

COURSE:Easy
LEVEL:3
BALLOON:10,4,4,5,4,3,10,4,3
SCOREINIT:780
SCOREDIFF:170
#START
7,
00000008,
,
30030000,
11,
1110,
10010070,
00000800,
1012,
1110,
10020070,
00000800,
11,
1110,
1012,
3330,
12,
1120,
7,
8,//20
#GOGOSTART
500000000000000000000000000008000000000000000000,
1110,
500000000000000000000000000008000000000000000000,
1110,
1012,
1110,
2220,
7008,
500000000000000000000000000008000000000000000000,
1110,
500000000000000000000000000008000000000000000000,
1110,
1012,
1110,
1112,
70000800,
33,
33,
20020050,
000000000000000000000000000000000008000000000000,//40
#GOGOEND
7,
00000008,
,
30030000,//44
#GOGOSTART
500000000000000000000000000008000000000000000000,
1110,
500000000000000000000000000008000000000000000000,
1110,
1012,
1110,
2220,
7008,
500000000000000000000000000008000000000000000000,
1110,
500000000000000000000000000008000000000000000000,
1110,
1012,
1110,
1112,
70000800,
33,
33,
20020050,
000000000000000000000000000000000008000000000000,//64
#GOGOEND
,
,
#END
