//TJADB Project
TITLE:Walking Through the Towers
TITLEJA:Walking Through The Towers
SUBTITLE:--Kenji Itoh/Puzzle & Dragons
SUBTITLEJA:「パズル&ドラゴンズ」より
BPM:150
WAVE:Walking Through the Towers.ogg
OFFSET:-1.799
DEMOSTART:14.590

COURSE:Oni
LEVEL:7
BALLOON:12,12,12,12,22,4,22,8
SCOREINIT:610
SCOREDIFF:145
#START
7008,
7008,
11,
22,
7008,
7008,
11,
22,
1000201000222020,
1000101120201000,
1000201000222020,
1001001120201000,
10211021,
1002001010222020,
7,
08,
1000201010222020,
1000101120201000,
1000201010222020,
1001001120102000,
1000201110002011,
1002001010222020,
1000201010222020,
500000000000000008000000200000200000200000000000,//24
#GOGOSTART
1020102210201120,
1020102210201120,
1020102210201120,
1020102211204000,
1020102210201120,
1020102210201120,
1020102210201120,
1020102211202000,
3011201010222010,
1011201010222010,
3011201010202010,
1011201010222010,
3011201120112210,
3011201070008000,//38
#GOGOEND
3000201010222020,
1000101120201000,
1000201010222020,
1001001120201000,
1000201110002011,
1002001010222020,
7,
08,
1000201010222020,
1000101120201000,
1000201010222020,
1001001120201000,
1000201110002011,
1002001010222020,
1000201010222020,
500000000000000008000000200000200000200000000000,//54
#GOGOSTART
1020102210201120,
1020102210201120,
1020102210201120,
1020102211204000,
1020102210201120,
1020102210201120,
1020102210201120,
1020102211202000,
3011201110222010,
1011201110222010,
1011201010202010,
1011201110222010,
1011201120112210,
3011201070000000,//68
#GOGOEND
8,
#END

COURSE:Hard
LEVEL:5
BALLOON:10,10,10,10,15,15,5
SCOREINIT:700
SCOREDIFF:170
#START
7008,
7008,
11,
22,
7008,
7008,
11,
22,
10010111,
10011000,
10010111,
1001002020002000,
10011001,
1002002020002000,
10017000,
08,
10010111,
10011000,
10010111,
1002002020002000,
10011001,
1002002020002000,
10011002,
500000000000000008000000200000000000200000000000,//24
#GOGOSTART
10110111,
10110111,
1001002020101010,
3443,
30110111,
10110111,
1001002020101010,
10011010,
3003003040040040,
30110210,
10011000,
1001002020002000,
12,
100000000000000000000000200000500000000008000000,//38
#GOGOEND
10020111,
10011000,
10020111,
1002002020002000,
10011002,
1002002020002000,
10017000,
08,
10020111,
10011000,
10020111,
1002002020002000,
10011002,
1002002020002000,
10011002,
500000000000000008000000200000000000200000000000,//54
#GOGOSTART
10210111,
10210111,
1002002020101010,
3443,
30210111,
10210111,
1002002020101010,
10021010,
3003003040040040,
30220110,
10021000,
1002002020002000,
12,
10002700,//68
#GOGOEND
8,
,
,
,
,
#END

COURSE:Normal
LEVEL:4
BALLOON:8,6,8,6,16,16
SCOREINIT:820
SCOREDIFF:200
#START
7008,
7008,
11,
22,
7008,
7008,
11,
22,
1110,
11,
1110,
1011,
12,
1022,
5,
000000000000000000000000000008000000000000000000,
1110,
11,
1110,
1011,
12,
1022,
500000000000000000000000000000000000000000000008,
0033,//24
#GOGOSTART
30110010,
10110010,
10111020,
3344,
30110010,
10110010,
500000000000000000000000000000000000000000000008,
0033,
30101110,
10101110,
11,
10101110,
7,
08,//38
#GOGOEND
1110,
11,
1110,
1011,
11,
2022,
5,
000000000000000000000000000008000000000000000000,
1110,
11,
1110,
1011,
11,
2022,
500000000000000000000000000000000000000000000008,
0033,//54
#GOGOSTART
30110020,
10110020,
10101110,
3344,
30110020,
10110020,
500000000000000000000000000000000000000000000008,
0033,
30201110,
10201110,
11,
10201110,
9,
09,//68
#GOGOEND
8,
,
,
,
,
#END

COURSE:Easy
LEVEL:3
BALLOON:4,3,4,3,8,10
SCOREINIT:810
SCOREDIFF:200
#START
7008,
7008,
11,
11,
7008,
7008,
11,
11,
1,
1,
1,
1011,
11,
12,
5,
000000000000000000000000000008000000000000000000,
1,
1,
1,
1011,
11,
12,
500000000000000000000000000000000000000000000008,
0033,//24
#GOGOSTART
31,
22,
1110,
3333,
31,
11,
500000000000000000000000000000000000000000000008,
0033,
31,
22,
1110,
11,
7,
08,//38
#GOGOEND
1,
1,
1,
1011,
11,
12,
5,
000000000000000000000000000008000000000000000000,
1,
1,
1,
1011,
11,
12,
500000000000000000000000000000000000000000000008,
0033,//54
#GOGOSTART
31,
22,
1110,
3333,
31,
11,
500000000000000000000000000000000000000000000008,
0033,
31,
22,
1110,
22,
9,
09,//68
#GOGOEND
8,
,
,
,
,
#END
