//TJADB Project
TITLE:Ramen de Yo-Men‼
TITLEJA:ラーメン de Yo-Men!!
SUBTITLE:--Yano Yoshihito feat. Fusshi
BPM:118
WAVE:Ramen de Yo-Men!!.ogg
OFFSET:-2.300
DEMOSTART:10.659

COURSE:Oni
LEVEL:7
SCOREINIT:590
SCOREDIFF:158
#START
1001001001000000,
0002,
1001001001001020,
0000000030000012,
0010102101000020,
0011101100201012,
0010102101000020,
1000002010201022,
0010102101000020,
0011101102001012,
0010102101000020,
1000002010201022,
1002100210101020,
1001100010102010,
1001001000120202,
1100200011002001,
0010210010121020,
1001100010102000,
1001001012020010,
1000200111100040,
0010110100201201,
1001200111201021,
0011201011211022,
0010010010102010,
0010010010121221,
1001200111201021,
0011201010111020,
0122022201221201,
2121011110100030,
#GOGOSTART
0344,
3003003000112002,
0000221121101001,
0010111110202010,
3344,
3003003000111012,
0001101010201022,
1030030030030022,
#GOGOEND
500000000000000000000000000000000008000000000000,
1,
1,
11,
1111,
1000100210101010,
1111,
1120102011201020,
1101101101101122,
0020020020002030,
#GOGOSTART
0000300010101002,
1001001000111001,
0000122212201001,
0020111110201020,
3000300010101002,
1001001000112012,
0002102010201022,
1030030030030030,
1002200110022002,
1002001000112002,
0010210210210210,
0120210100201020,
1001100010101002,
1001001000111012,
0001101110111011,
#MEASURE 6/4
100000300000000300000000300000000300000000600000000000000008000000000000,
#GOGOEND
#MEASURE 3/4
100100102010,
100102102010,
121121,
102010210210,
110120102010,
120120101020,
112112,
101200101010,
5,
000000000000000000000008000000000000,
3,
,
001110000000000000,
#END

COURSE:Hard
LEVEL:5
BALLOON:12,13
SCOREINIT:560
SCOREDIFF:150
#START
1001001001000000,
,
1001001001001000,
03,
0010100101000020,
0010101110102000,
0010100101000020,
12121110,
0010100101000020,
0010101110102000,
0010100101000020,
12121110,
700000000000000000000000000000000008000000000000,
10101120,
1001001000202000,
1000100010102001,
01101000,
10101120,
1001001000202000,
10101124,
0010100100000000,
10201121,
01201121,
01201121,
01201122,
10201121,
01201121,
0010101110102000,
1110111020200030,
#GOGOSTART
0344,
3003003000111000,
00221122,
00221122,
3344,
3003003000111010,
00021212,
1030030030030050,
000000000000000000000000000000000008000000000000,
#GOGOEND
1,
1,
11,
1111,
10101110,
1111,
1110102011101020,
9000000000000800,
00000003,
#GOGOSTART
0344,
3003003000111000,
00221122,
00221122,
3344,
3003003000111010,
00021212,
1030030030030030,
3434,
3004003000111000,
0010010010010010,
0100100100101010,
3434,
3004003000111010,
00021212,
#MEASURE 6/4
100000300000000300000000300000000300000000600000000000000008000000000000,
#GOGOEND
#MEASURE 3/4
110110002000,
110110000000,
011222,
111222,
110110002000,
110110000000,
022211,
122211,
5,
000000000000000000000008000000000000,
3,
0,
001110000000000000,
,
,
#END

COURSE:1
LEVEL:4
BALLOON:9,10,20
SCOREINIT:540
SCOREDIFF:140
#START
1110,
0,
1111,
03,
0010100101000000,
10101110,
0010100101000000,
10102220,
0010100101000000,
10101110,
0010100101000000,
10102220,
700000000000000000000000000000000008000000000000,
1111,
1001001000000000,
1000100010001001,
0110,
1111,
1001001000000000,
10101004,
0010100100000000,
10201022,
02202011,
01101022,
02201120,
10201022,
02202011,
01101120,
10102203,
#GOGOSTART
0344,
3003003000000000,
00221100,
00221010,
3344,
3003003000000000,
00022222,
2030030030030050,
#GOGOEND
000000000000000000000000000000000008000000000000,
1,
1,
11,
1111,
10101110,
1111,
11201120,
9000000000000800,
00000003,
#GOGOSTART
0344,
3003003000000000,
00221100,
00221010,
3344,
3003003000000000,
00022222,
2030030030030030,
3434,
3004003000000000,
07000000,
000000000000000000000000000000000000080000000000,
3434,
3004003000000000,
00022222,
#MEASURE 6/4
200000300000000300000000300000000300000000600000000000000008000000000000,
#GOGOEND
#MEASURE 3/4
110,
110,
011222,
111222,
110,
110,
022211,
122211,
5,
000000000000000000000008000000000000,
6,
000000000000000000000000000000000008,
,
,
,
#END

COURSE:0
LEVEL:4
BALLOON:5,7,12,7
SCOREINIT:600
SCOREDIFF:180
#START
1110,
0,
1111,
03,
11,
1110,
11,
2220,
11,
1110,
11,
2220,
700000000000000000000000000000000008000000000000,
1110,
3,
10101005,
000000000000000000000008000000000000000000000000,
1110,
3,
10101005,
000000000000000000000008000000000000000000000000,
1210,
1210,
1210,
1,
1210,
1210,
1110,
10102003,
#GOGOSTART
03,
30030000,
1110,
1122,
33,
30030000,
1111,
03003005,
#GOGOEND
000000000000000000000000000008000000000000000000,
1,
1,
11,
1110,
1110,
1111,
2222,
9000000000000800,
00000003,
#GOGOSTART
03,
30030000,
1110,
1122,
33,
30030000,
1111,
03003000,
33,
30030000,
07000000,
000000000000000000000000000000000000080000000000,
33,
30030000,
1111,
#MEASURE 6/4
030030030000,
#GOGOEND
#MEASURE 3/4
110,
110,
070000,
000000000000000000000000080000000000,
110,
110,
010010,
020020,
5,
000000000000000000000008000000000000,
6,
000000000000000000000000000000000008,
,
,
,
#END
