//TJADB Project
TITLE:GLORIOUS RO@D
TITLEJA:GLORIOUS RO@D
SUBTITLE:--Takura Watanabe feat. Takuma Terashima/THE iDOLM@STER SideM
SUBTITLEJA:「アイドルマスター SideM」より
BPM:128
WAVE:GLORIOUS ROAD.ogg
OFFSET:-1.929
DEMOSTART:63.091

COURSE:Oni
LEVEL:7
BALLOON:7,4,6
SCOREINIT:850
SCOREDIFF:235
#START
00101001,
000000100000000000500000000000000000000008000000,
00101001,
000000100000000000500000000000000000000008000000,
00101001,
000000100000000000500000000000000000000008000000,
00101001,
000000100000000000500000000000000008000000000000,
11212112,
1020102010102210,
11212112,
1020102010222220,
11212112,
1020102010102210,
11212112,
1020102010222220,
10101222,
1002102010202020,
10122212,
1002102010222020,
30401222,
1002102010202020,
10122212,
1002107000008000,
1002102000102020,
1000002220102020,
1002102010010020,
1002102070008000,
1002102000102020,
1000002220102020,
1002102210102000,
500000000000000000000000000000000000000008000000,
3000000010222220,//33
#GOGOSTART
1021002010201120,
1021002010221020,
1021002010201120,
1021002010221020,
10434300,
43430333,
03330444,
300000000300000000300000600000000008000000000000,
3000400010201120,
1021002010221020,
1021002010201120,
1021002010221020,
10434300,
43430333,
03330444,
300000000300000000300000600000000000000008000000,//49
#GOGOEND
00202002,
02020000,
00202002,
02070000,
,
,
,
,
8,
#END

COURSE:Hard
LEVEL:3
BALLOON:6
SCOREINIT:700
SCOREDIFF:200
#START
00101001,
01010000,
00101001,
000000100000000000500000000000000000000008000000,
00101001,
01010000,
00101001,
000000100000000000500000000000000008000000000000,
10202001,
01010000,
10202001,
000000100000000000500000000000000008000000000000,
10202001,
01010000,
10202001,
000000100000000000500000000000000008000000000000,
10000220,
10000220,
10011220,
1001001000000000,
30400220,
10000220,
10011220,
1001001000000000,
1001001000202020,
00022110,
1001001010000000,
1001001010000000,
1001001000202020,
00022110,
1001001010002000,
500000000000000000000000000000000008000000000000,
30000222,//33
#GOGOSTART
1001001000202020,
1001001010002020,
1001001000200020,
100000000100000000100000500000000000000000000008,
00443300,
44330333,
03330444,
3003003030000000,
30400222,
1001001010002020,
1001001000202020,
100000000100000000100000500000000000000000000008,
00443300,
44330333,
03330444,
300000000300000000300000600000000000000008000000,//49
#GOGOEND
00202002,
02020000,
00202002,
02070000,
,
,
,
,
8,
,
,
#END

COURSE:Normal
LEVEL:3
BALLOON:9,5,9,9,5
#START
0110,
,
0110,
,
0220,
,
0220,
,
00101005,
000000000000000000000000000000000000000008000000,
00101007,
00000008,
00202005,
000000000000000000000000000000000000000008000000,
00202007,
00000800,
1,
1,
1022,
2,
3300,
1,
1022,
2,
7,
8011,
11,
22,
7,
8011,
11,
500000000000000000000000000008000000000000000000,
3,//33
#GOGOSTART
3,
10022000,
3,
10022000,
0330,
30300111,
01110111,
600000000000000000000000000008000000000000000000,
3300,
10022000,
3,
10022000,
0330,
40400111,
01110111,
600000000000000000000000000000000000000008000000,//49
#GOGOEND
0220,
,
0220,
00070000,
,
,
,
,
8,
,
,
#END

COURSE:Easy
LEVEL:2
BALLOON:8,4,4
#START
0110,
,
0110,
,
0110,
,
0110,
,
00101005,
000000000000000000000000000000000000000008000000,
00101007,
00000008,
00101005,
000000000000000000000000000000000000000008000000,
00101007,
00000800,
1,
1,
11,
1,
3300,
1,
11,
2,
3,
,
22,
2,
3,
,
22,
500000000000000000000000000008000000000000000000,
3,//33
#GOGOSTART
1,
12,
1,
12,
0330,
30300111,
01110000,
600000000000000000000000000008000000000000000000,
3300,
12,
1,
12,
0330,
40400111,
01110000,
600000000000000000000000000000000000000008000000,//49
#GOGOEND
0220,
,
0220,
00070000,
,
,
,
,
8,
,
,
#END
