//TJADB Project
TITLE:EDY -Electrical Dancing Yoga-
TITLEJA:EDY ‐エレクトリカルダンシングヨガ‐
SUBTITLE:--Takafumi Sato feat. Kagamine Rin & Kagamine Len
SUBTITLEJA:feat.鏡音リン・鏡音レン
BPM:132
WAVE:EDY -Electrical Dancing Yoga-.ogg
OFFSET:-2.847
DEMOSTART:39.201 //shinuchi:
4990/3310/2080/1260

COURSE:Oni
LEVEL:9
BALLOON:10,2
SCOREINIT:430,1300
SCOREDIFF:105
#START
1220000020002010,
100000200200100000200200100100100100202020202020,
11111111,
100100100100200200102020202020101010200200100100, //4
10210000,
10210000,
10012020,
10012020,
10210000,
20220000,
100000000100101010101010,
2222100012204000, //12
12212010,
1020221000122020,
12212210,
12002020,
12212010,
1020221000122020,
1001201021001222,
7000000080012000, //20
1002100210112020,
2112021030203020,
1002100210112020,
200200200100100100202020101010100100200020002000,
1002100210112020,
2112021030203020,
1002100210112020,
100200100200100000202020100000000100200000000000, //28
1011210120112020,
200100100200000200100000101010200000101010200000,
2110102110112020,
200200200100100100202020101010001000400000000000,
1011210120112020,
200100100200000200100000101010200000101010200000,
2110102110112020,
100000200100100000100200100200101010202020200200, //36
2222,
0222022030003000,
2222,
0222222030003000,
11111111,
2111211121112111,
1222122212221222,
1212112212121222,
222222222222222111111111,
1,
3044, //47
#GOGOSTART
100000200200100000100200100000101010200000200000,
100000100100200000100200100000202020200000200000,
100000200200100000100200100000102020200000102020,
2021101212012021,
100000200200100000100200100000101010200000200000,
100000100100200000100200100000202020200000200000,
100000200200100000100200100000102020200000102020,
500000000000000008000000101020200100100000100000, //55
#GOGOEND
4,
0,
3,
0022,
11111111,
1121221211212212,
5,
000000000000000000000008000000000100100000000000, //63
#GOGOSTART
100000200200100000100200100000101010200000200000,
100000100100200000100200100000202020200000200000,
1120102110212020,
100000200100100000100200100200000100202020200100,
100000200200100000100200100000101010200000200000,
100000100100200000100200100000202020200000200000,
1120102110212020,
102010201020100000200200102020202020700000080000, //71
100000200200100000100200100200201010200000200000,
1021102112211102,
1120102110212020,
100000200100100000100200100200000100202020200200,
100000200200100000100200100200201010200000200000,
100000200100100000200100100200200100101010100200,
1120102110212022,
101010202020101010202020101010202020500000000008, //79
#GOGOEND
0,
0,
0, //82
#END

COURSE:Hard
LEVEL:7
BALLOON:8,4,15
SCOREINIT:550,2140
SCOREDIFF:145
#START
2220000020002010,
1000000020202220,
11111111,
1110111011101111, //4
10010000,
10010000,
10012020,
10012020,
10010000,
20020000,
100000000100101010101010,
0000000022200000, //12
12212010,
10210222,
12212210,
12002020,
12212010,
10210222,
1020201022002222,
0, //20
1000100010111000,
1011100020002000,
1000100010111000,
1011100011111000,
1000100010111000,
1011100020002000,
1000100010111000,
78, //28
1000100110111000,
1011011020002000,
1000100110111000,
1011011070008000,
1000100110111000,
1011011020002000,
1000100110111000,
100000100100100000100000500000000008000000000000, //36
2222,
2022202020002000,
2222,
2022202020002000,
11111111,
11111111,
1110111011101110,
1111111011111110,
9009,
8,
3, //47
#GOGOSTART
1020101110002020,
12121222,
1020101110200020,
10112020,
1020101110002020,
12121222,
1020101110200020,
500000000000000000000008000000000000000000000000, //55
#GOGOEND
4,
0,
3,
0022,
11111111,
1110111011101110,
5,
000000000000000000000008000000000000000000000000, //63
#GOGOSTART
1020101110002020,
12121222,
1020101110102000,
10112020,
1020101110002020,
12121222,
1020101110102000,
1111100022222000, //71
1020101110002020,
1011101110001110,
1020101110102000,
10112020,
1020101110002020,
1011101110002220,
1020101110102000,
500000000000000000000000000000000000000000000008, //79
#GOGOEND
0,
0,
0, //82
#END

COURSE:Normal
LEVEL:6
BALLOON:8,6,3,12,3
SCOREINIT:700,3520
SCOREDIFF:188
#START
12,
12,
11111111,
7008,
10010000,
10010000,
10012020,
10012020,
10010000,
20020000,
100000000000000000100000600000000000000000000008,
0, //12
10111000,
10000220,
10111000,
1022,
10111000,
10000220,
10111044,
3, //20
10101110,
1122,
10101110,
100000000000100000000000600000000008000000000000,
10101110,
1122,
10101110,
78, //28
10101120,
11011000,
10101120,
11017080,
10101120,
11011000,
10101120,
100000000000100000100000500000000008000000000000, //36
2222,
22022000,
2222,
22022000,
11111111,
11111111,
5,
000000000000000000000000000000000000000008000000,
9009,
8,
3, //47
#GOGOSTART
10111010,
10111020,
10111010,
10112020,
10111010,
10111020,
10111011,
500000000000000000000008000000000000000000000000, //55
#GOGOEND
4,
0,
3,
0022,
1111,
11111111,
5,
000000000000000000000008000000000000000000000000, //63
#GOGOSTART
10111010,
10111020,
10111010,
10112020,
10111010,
10111020,
10111011,
500000000008000000000000700000000000800000000000, //71
10111010,
10111022,
10111010,
10112020,
10111010,
10111022,
10111011,
500000000000000000000000000000000000000000000008, //79
#GOGOEND
0,
0,
0, //82
#END

COURSE:Easy
LEVEL:4
BALLOON:5,4,3,8,2
SCOREINIT:590,5330
SCOREDIFF:165
#START
1,
1,
1111,
7008, //4
10010000,
10010000,
20020000,
20020000,
10010000,
10010000,
200000000000000000200000600000000000000000000008,
0, //12
1110,
1,
1110,
1022,
1110,
1,
1114,
3, //20
1111,
1110,
1111,
100000000000100000000000600000000008000000000000,
1111,
1110,
1111,
78, //28
1202,
1110,
1202,
1178,
1202,
1110,
1202,
100000000000100000000000500000000008000000000000, //36
2222,
2220,
2222,
2220,
1111,
1111,
5,
000000000000000000000000000000000000000008000000,
9009,
8,
3, //47
#GOGOSTART
1110,
1022,
1110,
1122,
1110,
1022,
1111,
500000000000000000000008000000000000000000000000, //55
#GOGOEND
4,
0,
3,
0022,
11,
1111,
5,
000000000000000000000008000000000000000000000000, //63
#GOGOSTART
1110,
1022,
1110,
1122,
1110,
1022,
1110,
500000000008000000000000700000000000800000000000, //71
1110,
1022,
1110,
1122,
1110,
1022,
1112,
500000000000000000000000000000000000000000000008, //79
#GOGOEND
0,
0,
0, //82
#END
