//TJADB Project
TITLE:Mata Saitama 2000
TITLEJA:またさいたま2000
SUBTITLE:--Linda AI-CUE
BPM:240
WAVE:Mata Saitama 2000.ogg
OFFSET:-1.449
DEMOSTART:1.449

COURSE:Oni
LEVEL:10
BALLOON:100,6
SCOREINIT:420
SCOREDIFF:98
#START
#MEASURE 3/4
110110,
110110,
110110,
#MEASURE 2/4
11211000,
#MEASURE 3/4
110110,
110110,
110110,
122212104000,
110110,
110110,
110110,
#MEASURE 2/4
11211000,
#MEASURE 3/4
110110,
110110,
110110,
122212104000,
#MEASURE 4/4
#SCROLL 4
7,
,
#SCROLL 3.5
,
#SCROLL 3
,
#SCROLL 2.5
,
#SCROLL 2
,
#SCROLL 1.5
,
#SCROLL 1
08,
#MEASURE 2/4
,
#MEASURE 3/4
200200,
200200,
222,
200200,
200200,
222,
111,
111,
111111,
211011201110,
211011201110,
211121103000,
111,
100110101010,
100010001111,
111,
211012101110,
211110003000,
111,
111,
101010101110,
111,
211012101110,
#MEASURE 7/8
21111011111000,
#MEASURE 3/4
011010,
110110,
111,
110101,
121011201110,
211010111110,
111,
111010,
111111,
111020,
121011201110,
211011111000,
102100,
210010,
111111111111,
102102,
102100,
111111111111,
110120,
110120,
110120,
#MEASURE 2/4
11211000,
#MEASURE 3/4
110120,
110120,
110120,
708,
#MEASURE 4/4
#BPMCHANGE 160
#GOGOSTART
100000002000000010001000200000001000101020001000,
200010001010200020002000500000000000008000000000,
200000001000000020002000100020001000200010102010,
100010002000000020002000500000000000008000000000,
200020201000200020001000200010001000102020201020,
100020001000200010000000100000000000000020002000,
#BPMCHANGE 240
#SCROLL 4
500000000000000000000000000000800000000000000000,
#SCROLL 1
#MEASURE 4/4
100000200000100000200000100000100200200000100000,
100200000200100000200000100000200200100000100000,
200200100000200000100000300000300000300000000000,
100000200000100000200000100000100200200000100000,
100200000200100000200000100000200200100000100000,
200200100000200000100000300000300000300000000000,
100000200000100000200000100000100200200000100000,
100200000200100000200000100000200200100000100000,
200200100000200000100000100200200000100000200200,
100100100000200000100100100000400000000000000000,
#GOGOEND
#MEASURE 3/4
101011101000,
101011101000,
111110,
111011101010,
111010101010,
111110101010,
111010001000,
101111,
111110101010,
101111,
101110,
#MEASURE 4/4
1111101010104000,
#MEASURE 3/4
#GOGOSTART
121212,
101110201020,
101010111020,
121212,
121212,
101010203011,
121112,
102110201020,
101010111020,
111112,
111212,
111130,
#GOGOEND
121212,
101110201020,
011101110111,
102010200012,
010110101020,
111110203011,
121201,
121101,
211000101110,
102010011010,
101000111011,
101110111111,
#MEASURE 5/4
1,
,
11111110111101101111,
11011011111020000000,
#MEASURE 3/4
#GOGOSTART
330440,
330440,
330440,
#MEASURE 2/4
11211000,
#MEASURE 3/4
330440,
330440,
330440,
122212104000,
112212,
112212,
112212,
#MEASURE 2/4
11211000,
#MEASURE 3/4
101120201220,
101120201220,
101120201220,
122212122120,
4,
#GOGOEND
#END

COURSE:Hard
LEVEL:8
BALLOON:4,4,30,4,5,4,15,4,4
SCOREINIT:430
SCOREDIFF:100
#START
#MEASURE 3/4
110110,
110110,
110110,
#MEASURE 2/4
58,
#MEASURE 3/4
330110,
330110,
330110,
780,
330220,
330220,
330220,
#MEASURE 2/4
58,
#MEASURE 3/4
330440,
330440,
330440,
780,
#MEASURE 4/4
#SCROLL 4
,
0900,
#SCROLL 3.5
,
#SCROLL 3
,
#SCROLL 2.5
,
#SCROLL 2
,
#SCROLL 1.5
,
#SCROLL 1
08,
#MEASURE 2/4
,
#MEASURE 3/4
22,
22,
222,
22,
22,
222,
111,
111,
111011,
111111,
5,
083,
111,
111,
111010,
111010,
111111,
101110003000,
111,
111,
111010,
111010,
111111,
#MEASURE 7/8
10111000300000,
#MEASURE 3/4
111,
111,
111010,
111010,
111111,
101110003000,
111,
111,
111010,
111010,
111111,
101110003000,
201201,
201201,
200022202000,
201201,
201200,
200022202000,
330110,
330110,
330110,
#MEASURE 2/4
58,
#MEASURE 3/4
330220,
330220,
330220,
780,
#GOGOSTART
#BPMCHANGE 160
#MEASURE 4/4
102011201121,
121200500800,
201022101212,
112000500800,
102011201121,
121200000000,
#SCROLL 4
#BPMCHANGE 240
7008,
#SCROLL 1
1020102010111010,
10121211,
21215008,
1020102010111010,
10121211,
21215008,
10121211,
2010201011101000,
1020102010111010,
7080,
#GOGOEND
#MEASURE 3/4
101010001110,
101010002220,
101010001110,
101010002220,
101010101110,
101010102220,
101010001110,
101010002220,
101010001110,
101010002220,
101010101110,
#MEASURE 4/4
1010101022200000,
#GOGOSTART
#MEASURE 3/4
111120,
111120,
111120,
111120,
121212,
101110003000,
111120,
111120,
111120,
111120,
121212,
101110003000,
#GOGOEND
101010002011,
111020,
101010002011,
112010,
111020,
101010003011,
111020,
101010002011,
111020,
101020002011,
111020,
111030,
#MEASURE 5/4
#SCROLL 5
9,
#SCROLL 4
,
#SCROLL 3
,
#SCROLL 2
0000080000,
#MEASURE 3/4
#GOGOSTART
#SCROLL 1
110110,
110110,
110110,
#MEASURE 2/4
58,
#MEASURE 3/4
330110,
330110,
330110,
780,
330220,
330220,
330220,
#MEASURE 2/4
58,
#MEASURE 3/4
330440,
330440,
330440,
780,
#GOGOEND
#END

COURSE:Normal
LEVEL:7
BALLOON:3,3,25,3,3,3,10,3,3
SCOREINIT:480
SCOREDIFF:120
#START
#MEASURE 3/4
3,
3,
3,
#MEASURE 2/4
58,
#MEASURE 3/4
310000,
310000,
310000,
708,
330100,
330100,
330100,
#MEASURE 2/4
58,
#MEASURE 3/4
330300,
330300,
330300,
708,
#MEASURE 4/4
#SCROLL 4
,
0900,
#SCROLL 3.5
,
#SCROLL 3
,
#SCROLL 2.5
,
#SCROLL 2
,
#SCROLL 1.5
09,
#SCROLL 1
08,
#MEASURE 2/4
,
#MEASURE 3/4
22,
22,
220,
22,
22,
220,
111,
111,
111011,
5,
000008,
003,
111,
111,
111010,
111010,
111010,
103,
111,
111,
111010,
111010,
111010,
#MEASURE 7/8
1000300,
#MEASURE 3/4
111,
111,
111010,
111010,
111010,
103,
111,
111,
111010,
111010,
111010,
103,
22,
22,
220,
22,
22,
220,
330000,
330000,
330000,
#MEASURE 2/4
58,
#MEASURE 3/4
330100,
330100,
330100,
708,
#GOGOSTART
#BPMCHANGE 160
#MEASURE 4/4
112112,
100200100000,
112112,
100200100000,
112112,
100200100000,
#SCROLL 4
#BPMCHANGE 240
7008,
#SCROLL 1
10102011,
1212,
11100000,
10102011,
1212,
11100000,
10102011,
1212,
11100000,
7008,
#GOGOEND
#MEASURE 3/4
100110,
100120,
100220,
100111,
100220,
100111,
100110,
100120,
100220,
100111,
100220,
#MEASURE 4/4
1,
#GOGOSTART
#MEASURE 3/4
111020,
112,
112,
112,
112,
111030,
111020,
112,
112,
112,
112,
111030,
#GOGOEND
111020,
111000,
111020,
112000,
111020,
111030,
111020,
111000,
111020,
112000,
111020,
111030,
#MEASURE 5/4
#SCROLL 5
9,
#SCROLL 4
,
#SCROLL 3
,
#SCROLL 2
00080,
#MEASURE 3/4
#GOGOSTART
#SCROLL 1
310100,
310100,
310100,
#MEASURE 2/4
58,
#MEASURE 3/4
330100,
330100,
330100,
708,
330200,
330200,
330200,
#MEASURE 2/4
58,
#MEASURE 3/4
330400,
330400,
330400,
708,
#GOGOEND
#END

COURSE:Easy
LEVEL:5
BALLOON:3,3,20,3,3,4,10,3,3
SCOREINIT:470
SCOREDIFF:113
#START
#SCROLL 0.9
#MEASURE 3/4
3,
3,
3,
#MEASURE 2/4
58,
#MEASURE 3/4
3,
3,
3,
708,
3,
3,
3,
#MEASURE 2/4
58,
#MEASURE 3/4
3,
3,
3,
708,
#MEASURE 4/4
#SCROLL 4
,
0900,
#SCROLL 3.5
,
#SCROLL 3
,
#SCROLL 2.5
,
#SCROLL 2
,
#SCROLL 1.5
09,
#SCROLL 0.9
08,
#MEASURE 2/4
,
#MEASURE 3/4
1,
1,
1,
1,
1,
1,
1,
1,
110,
5,
000008,
003,
101,
101,
101,
101,
101,
113,
101,
101,
101,
101,
101,
#MEASURE 7/8
1010300,
#MEASURE 3/4
101,
101,
101,
101,
101,
113,
101,
101,
101,
101,
101,
113,
1,
1,
110,
1,
1,
110,
3,
3,
3,
#MEASURE 2/4
58,
#MEASURE 3/4
3,
3,
3,
708,
#GOGOSTART
#BPMCHANGE 160
#MEASURE 4/4
1111,
1210,
1111,
1210,
1111,
1210,
#SCROLL 4
#BPMCHANGE 240
7008,
#SCROLL 0.9
1111,
1212,
1100,
1111,
1212,
1100,
1111,
1212,
1100,
7008,
#GOGOEND
#MEASURE 3/4
1,
1,
1,
1,
1,
101,
1,
1,
101,
1,
1,
#MEASURE 4/4
1,
#GOGOSTART
#MEASURE 3/4
101,
101,
101,
101,
101,
113,
101,
101,
101,
101,
101,
113,
#GOGOEND
1,
1,
1,
111,
1,
113,
1,
1,
1,
111,
1,
113,
#MEASURE 5/4
#SCROLL 5
9,
#SCROLL 4
,
#SCROLL 3
,
#SCROLL 2
00080,
#MEASURE 3/4
#GOGOSTART
#SCROLL 0.9
3,
3,
3,
#MEASURE 2/4
58,
#MEASURE 3/4
3,
3,
3,
708,
3,
3,
3,
#MEASURE 2/4
58,
#MEASURE 3/4
3,
3,
3,
708,
#GOGOEND
#END
