//TJADB Project
TITLE:Haya Saitama 2000
TITLEJA:はやさいたま2000
SUBTITLE:--Linda AI-CUE
BPM:250
WAVE:Haya Saitama 2000.ogg
OFFSET:-1.217
DEMOSTART:58.812

COURSE:Oni
LEVEL:9
BALLOON:50
SCOREINIT:560
SCOREDIFF:145
#START
07000000,
,
,
,
08,
1111,
1122,
1111,
1124,
11221220,
1010202010111000,
11221220,
1010202010111000,
11221220,
1010202010111000,
11221220,
1010202010111000,
12212120,
1020102010111000,
12212120,
1020102010111000,
12212120,
1020102010111000,
12212120,
1020102010111000,
10101110,
1011101010101000,
10101110,
1011101010101000,
10101110,
1011101010101000,
10101110,
1011101010004000,
30101110,
30101110,
30101110,
30101110,
40101110,
40101110,
40101110,
40101110,
30101110,
30101110,
30101110,
30101110,
40101110,
40101110,
40101110,
40101110,
22221220,
22221220,
22221225,
000000000000000000000000000000000008000000000000,
22221220,
22221220,
22221225,
000000000000000000000000000000000000000000000008,
,
,
,
#GOGOSTART
1000200010102000,
1011201020101120,
2000100020201020,
1020112110102000,
1000200010102010,
2010201011102010,
2022102020102010,
1012221210201020,
1000200010102000,
1011201020101120,
2000100020201020,
1020112110102000,
1000200010102010,
2010201011102010,
2022102020102010,
1012221210201020,
1000200010102000,
1011201020101120,
2000100020201020,
1020112110102000,
1000200010102010,
2010201011102010,
2022102020102010,
1012221210201020,
1000200010102000,
1011201020101120,
2000100020201020,
1020112110102000,
1000200010102010,
2010201011102010,
2022102020102010,
1012221210403040,
3,
#GOGOEND
#END

COURSE:Hard
LEVEL:8
SCOREINIT:540
SCOREDIFF:145
#START
,
1111,
1122,
1111,
1122,
1111,
1122,
1111,
1124,
11111110,
10101110,
11111110,
11103030,
11111110,
10101110,
11111110,
10103030,
11111110,
20201110,
11111110,
22203030,
11111110,
10101110,
11111110,
20203030,
10101110,
1011101010002000,
10101110,
1011101010000000,
10101110,
1011101010101000,
10101110,
1011101010004000,
30101110,
30101110,
30101110,
30101110,
40101110,
40101110,
40101110,
40101110,
30101110,
30101110,
30101110,
30101110,
40101110,
40101110,
40101110,
40101110,
22222220,
22222220,
22222220,
500000000000000000000000000000000008000000000000,
22222220,
22222220,
22222220,
500000000000000000000000000000000000000000000008,
,
,
,//60
#GOGOSTART
10201120,
11212120,
20102210,
12121120,
10201120,
11212120,
20102210,
12121120,
10201120,
11212120,
20102210,
12121120,
10201120,
11212120,
20102210,
12121120,
10201120,
11212120,
20102210,
12121120,
10201120,
11212120,
20102210,
12121120,
10201120,
11212120,
20102210,
12121120,
10201120,
11212120,
20102210,
12121120,
3,//93
#GOGOEND
0,
0,
#END

COURSE:Normal
LEVEL:7
SCOREINIT:550
SCOREDIFF:153
#START
,
1111,
1120,
1111,
1120,
1111,
1120,
1111,
1140,
10101110,
10101110,
10101110,
1130,
10101110,
10101110,
10101110,
1130,
20201110,
20201110,
20201110,
2230,
20201110,
20201110,
20201110,
2230,
10101110,
11111020,
10101110,
11111000,
10101110,
11111020,
10101110,
11111040,
3,
3,
3,
3,
31,
31,
31,
31,
30001010,
30001010,
30001010,
30001010,
3111,
3111,
3111,
3111,
2222,
2220,
2222,
500000000000000000000000000008000000000000000000,
2222,
2220,
2222,
500000000000000000000000000000000000000000000008,
,
,
,//60
#GOGOSTART
1212,
11111000,
2121,
11111000,
10101110,
11101110,
10101111,
10111030,
1212,
11111000,
2121,
11111000,
10101110,
11101110,
10101111,
10111030,
1212,
11111000,
2121,
11111000,
10101110,
11101110,
10101111,
10111030,
1212,
11111000,
2121,
11111000,
10101110,
11101110,
10101111,
10111030,
3,//93
#GOGOEND
,
,
#END

COURSE:Easy
LEVEL:5
SCOREINIT:430
SCOREDIFF:128
#START
0,
1110,
1120,
1110,
1120,
1110,
1120,
1110,
1140,
1110,
1112,
1110,
1130,
1110,
1112,
1110,
1130,
2210,
2211,
2210,
2230,
2210,
2211,
2210,
2230,
22,
22,
22,
2220,
20002200,
20002200,
20002200,
2220,
3,
3,
3,
3,
31,
31,
31,
31,
3011,
3011,
3011,
3011,
3111,
3111,
3111,
3111,
22,
22,
2220,
5008,
22,
2220,
22,
50000000,
8,
,
,//60
#GOGOSTART
1212,
1120,
2121,
1120,
1212,
1120,
2121,
5008,
1212,
1220,
2121,
1220,
1212,
1220,
2121,
5008,
1212,
2120,
2121,
2120,
1212,
2120,
2121,
5008,
1212,
1110,
2121,
1130,
1212,
1110,
2121,
5008,
3,//93
#GOGOEND
0,
0,
#END
