//TJADB Project
TITLE:Let it Go ~Ari no Mama de~ -3DS2 Chart-
TITLEJA:Let It Go~ありのままで~
SUBTITLE:--Takako Matsu/Frozen
SUBTITLEJA:3DS2譜面 「アナと雪の女王」より
BPM:137
WAVE:Let it Go Ari no Mama de.ogg
OFFSET:-2.012
DEMOSTART:122.240

COURSE:Oni
LEVEL:4
BALLOON:10,10,15,18
SCOREINIT:680
SCOREDIFF:173
#START
20020200,
20020200,
20020202,
21,
22010200,
22010200,
22010202,
20000001, //8
10111020,
11010011,
22000221,
00000001,
10110022,
01100022,
11000222,
0, //16
00110201,
11020201,
11020201,
1,
00112202,
00112020,
000000500000000000000000000000000000000000000008,
0, //24
10110202,
10110202,
10221101,
11020202,
10110202,
10110202,
5,
000000000000000008000000000000000000100000100000,
01050000,
000000000000000008000000000000100000100000200000, //34
00000112,
00000011,
22201105,
000000000000000008000000000000100000100000500000,
000000000000000008000000000000100000200000500000,
000000000000000008000000000000100000100000200000,
02020210,
500000000000000000000000000008000000000000000000, //42
1110001110007000,
0822,
2220002220007000,
00800022,
10110070,
00000081,
20212112,
11002022, //50
1000200010102220,
1000200010102220,
1022201010002020,
1022201010002020,
1022201000100050,
000000000000000000000008000000000000100000000000,
1000111020200020,
21100010,
30330303,
3022201110222020, //60
#GOGOSTART
1000101000200011,
1000101000200022,
2000101020200020,
2020001000202011,
10110202,
01010120,
10101111,
#GOGOEND
1110111011101010,
500000000000000000000008000000300000300000300000, //69
#GOGOSTART
0010111010202020,
0020222010202010,
0010101000222011,
1022200000303030,
0010111010202022,
2022202000001020,
0010111000102050,
000000000000000000000000000008000000000000000000, //77
1110001110006000,
000000000000000008000000000000000000300000000000,
1110401110406000,
000000000000000008000000000000000000300000300000,
1110401110407000,
0008,
#GOGOEND
3,
0,
0,
0, //87
#END

COURSE:Hard
LEVEL:2
BALLOON:7,7,10,12,17
SCOREINIT:570
SCOREDIFF:140
#START
20020200,
20020200,
20020202,
2,
22020200,
22020200,
22020202,
20000001, //8
10111010,
22010010,
22000222,
00000001,
10110022,
01100022,
22000222,
0, //16
00110101,
11020201,
11020201,
1,
00102202,
0122,
000000500000000000000000000000000000000000000008,
0, //24
10110201,
10110201,
10222201,
11020201,
10110201,
10110202,
5,
000000000000000008000000000000000000100000100000,
01050000,
000000000000000008000000000000100000100000100000, //34
00000222,
00000011,
22201105,
000000000000000008000000000000100000100000500000,
000000000000000008000000000000200000200000500000,
000000000000000008000000000000100000100000100000,
02020220,
500000000000000000000000000008000000000000000000, //42
30030070,
0811,
40040070,
00800022,
20110070,
00008001,
10112222,
11002020, //50
10201122,
10201122,
10221022,
11101020,
10221105,
000000000000000000000008000000000000100000000000,
10221101,
01100040,
30330307,
0008, //60
#GOGOSTART
10110201,
10110201,
10112201,
11010221,
00110201,
01110120,
10110222,
#GOGOEND
01113333,
600000000000000008000000000000300000300000300000, //69
#GOGOSTART
00101222,
01012021,
01110221,
01100333,
00101222,
01012011,
02220225,
000000000000000000000000000008000000000000000000, //77
30030060,
000000000000000008000000000000000000300000000000,
30330360,
000000000000000008000000000000000000300000300000,
30330390,
#GOGOEND
000000000000000000000000000000009000000000000008,
0,
0,
0,
0, //87
#END

COURSE:Normal
LEVEL:2
BALLOON:10,10,12
SCOREINIT:820
SCOREDIFF:263
#START
2,
2,
22,
2,
2,
2,
22,
2, //8
1011,
1002,
2,
2,
1011,
1100,
2,
2, //16
1011,
1022,
2022,
2,
10001002,
0022,
1,
0, //24
1011,
1022,
2011,
1022,
1011,
1011,
5,
000000000008000000000000000000000000100000000000,
9009,
8, //34
1,
2220,
12,
1,
1,
2220,
12,
500000000000000000000000000000000008000000000000, //42
10010050,
000000000008000000000000100000000000100000000000,
10010050,
000000000000000008000000000000000000100000000000,
10010050,
000000000000000000000008000000000000000000000000,
1122,
1, //50
1122,
1122,
1122,
1110,
1122,
1,
1122,
1101,
10010005,
000000000000000000000000000008000000000000000000, //60
#GOGOSTART
1120,
1120,
1122,
1122,
1120,
1122,
500000000000000000000000000008000000000000000000,
#GOGOEND
9009,
8, //69
#GOGOSTART
1120,
1120,
1122,
1120,
1120,
1120,
1122,
500000000000000000000000000008000000000000000000, //77
30030060,
000000000000000008000000000000000000000000000000,
30030060,
000000000000000008000000000000000000000000000000,
30030090,
#GOGOEND
000000000000000000000000000000009000000000000008,
0,
0,
0,
0, //87
#END

COURSE:Easy
LEVEL:2
BALLOON:8,8,10
SCOREINIT:850
SCOREDIFF:350
#START
2,
2,
22,
2,
2,
2,
22,
2, //8
11,
1,
1,
2,
11,
1,
1,
2, //16
11,
22,
11,
1,
10000002,
0,
1,
0, //24
11,
22,
11,
2220,
11,
22,
500000000000000000000000000000000000000000000008,
0,
9009,
8, //34
1,
1,
22,
1,
1,
2,
22,
1, //42
3006,
000000000000000008000000000000000000000000000000,
3006,
000000000000000008000000000000000000000000000000,
1005,
000000000000000000000008000000000000000000000000,
10002002,
0, //50
11,
22,
1010,
1110,
22,
1110,
11,
2220,
10000005,
000000008000, //60
#GOGOSTART
11,
22,
11,
1110,
11,
22,
500000000000000000000000000008000000000000000000,
#GOGOEND
9009,
8, //69
#GOGOSTART
11,
22,
1110,
2220,
11,
2220,
1110,
500000000000000000000000000008000000000000000000, //77
3006,
000000000000000008000000000000000000000000000000,
3006,
000000000000000008000000000000000000000000000000,
3009,
#GOGOEND
000000000000000000000000000000009000000000000008,
0,
0,
0,
0, //87
#END
