//TJADB Project
TITLE:Angel Halo
TITLEJA:Angel Halo
SUBTITLE:--Rio Hamamoto/RIDGE RACER 3D
SUBTITLEJA:「リッジレーサー3D」より
BPM:224
WAVE:Angel Halo.ogg
OFFSET:-1.392
DEMOSTART:10.883

COURSE:Oni
LEVEL:10
SCOREINIT:400
SCOREDIFF:103
#START
200000000000200000000000200000000000200000300000,
000000000000200000000000200000000000200000100000,
000000000000200000000000200000000000200000100000,
000000000000200000000000200000000000200000100000,
000000000000300000000000300000000000300000400000,
000000000000200000000000200000000000200000100000,
000000000000200000100000100000100000000000400000,
000000000000200000000000200000000000000000400000,
300000300000000000100000000000100000000000400000,
100000100100200000100100100000100000200000100000,
100000100100200000100100100000100000200000100000,
100100100000200100100000100000100000200000100000,
100100100000200100100000100000100000200000100000,
100000100100200000100100100000100000200000100000,
100000100100200000100100100000200000200200100000,
000000200000000000200000200000200000200000400000,
000000000000000000000000000000000000000000400000,
000000200000100100100000200000200100100000100000,
200100100000100000200100100000100000200000400000,
000000200100100000100100200000200100000000100000,
200100100100200000000000100100100100200000000000,
100100100100100100200200200200200200100000200000,
200100100100200000100000100100200000200000000000,
100100100100100100200200200200200200100000200100,
200000200000200100200000200000100000100000100000,
400000000000000000000000000000000000000000000000,
200000100000000000000000200000000000100000100000,
000000000000000000000000200000100000000000000000,
100000100000000000000000200000000000100000100000,
000000000000000000000000200000100000000010001000,
100000100000000000000000200000000000100000100000,
000000000000000000000000200000000000100000100000,
100000100000000000000000300000000000300000000000,
400000000000100100100000000000000000100100100000,
200000100100100000200000100100100000200000100100,
100000200000100100100000200000100100100000100000,
200000100100100000200000100100100000200000100100,
100000200000300000000000300000000000300000100100,
200000100100100000100000200000100100200100100000,
100000200100100000100000200100100000100000400000,
100000200200100000100000200100100000200000100100,
200000200000100000100000200000200000000000200000,
200000100000100000200000100000200000100000200000,
200000100000100000200000100000200000100000100000,
200000000000100100100000200000000000200200200000,
100000200100100000200000100000000000100000200000,
200100100000100000200000100000200000100000200000,
200100100000100000200200200000200000100000100000,
000000000000200100100000200000100100100000200000,
200200100000100000100000200200200000200000000000,
000000200200100000100000200000000000200100100000,
100000000000200100100000200100100000100000100000,
200000100000000000100000100000000000100000100000,
200000100000100000200000000000000000100000000000,
100000100000000000100000200100100000100000100000,
100200200200100000100200200100200200100000100000,
000000000000000000000000000000000000000000000000,
000000000000000000000000000000000000000000300000,
200200100000200000100000200200100000200000100000,
100100100000200000100000100100100000200000100000,
200200100000200000100000200200100000200000100100,
100100100100200100100100200100100100200000300000,
200200100000200000100000200200100000200000100000,
100100100000200000100000100100100000200000100100,
100100100100100100100100100100100100100000400000,
300000100000000000100000000000100000000000100100,
#GOGOSTART
100100100000200000100000100100200000200000100100,
100100100000200000100000200100100000200000100100,
100100100000200000200200100100200200100100200200,
100100200200100100200200100000100000200000100100,
100100100000200000100000100100200000200000100100,
100100100000200000100000100100200000200100100000,
000000200000000000200000200000200000200000400000,
#GOGOEND
000000000000000000000000000000000000000000000000,
100000200000000000200000100000200000200000200200,
100000200000000000200200100000200000000000200200,
100000200000000000200000100000200000200000200200,
100000200000000000200200100000000000200000200200,
100000200000000000200000100000200000200000101010,
200000000000300000000000300000000000400000000000,
300000000000300000000000400000000000300000000000,
400000000000300000000000400000000000300000000000,
200000100000200200100000200000100000200000100000,
200000100000200000100000100200200200100000000000,
200000100000200200100000200000100000200000100000,
200000100000200200100000200000100100200200100000,
200200100100200200100100200200100100200000000000,
200100100100200100100100200000000000400000000000,
100000100000000000100000100000000000100000100000,
200100100000100000200200100000000000200000000000,
100000100000000000100000200100100000100000100000,
100200200200100000100200200100200200100000100000,
100000100000000000100000100000000000100000100000,
200100100000100000200200100000000000200000000000,
100000100000000000100000200100100000100000400000,
000000200000100000100000200000200200200000200000,
200000100000100000200000100000100000200000100000,
100000200000100000100000200000100000100000100000,
200000100000100000200000100000100000200000100000,
100000200000100000100000200000100000100000100100,
200000200000100000100000200000100000200000100000,
200100100000100000200100100000100000100000200200,
100000000000000000100000000000000000100000100100,
200000000000000000200000200100100000100000100100,
#GOGOSTART
200000100100200000200100100000100000200000100000,
100000200000100000100000200100100000200000100000,
200000100100200000200100100000100000200000100000,
100000200000200100100100200100100100200000200000,
100000100000000000100000100000000000100000100000,
200100100000100000200000000000000000100000000000,
200000100000000000100000100100100000100000000000,
400000000000000000400000100000100100100000600000,
#SCROLL 3.00
000000000000000000000000000000000080000000300000,
#GOGOEND
#END

COURSE:Hard
LEVEL:8
BALLOON:15
SCOREINIT:490
SCOREDIFF:128
#START
00000003,
,
,
,
00303034,
,
00000004,
00000004,
11010104,
00210121,
00210121,
00210121,
11211121,
00210121,
00210121,
02022224,
00000004,
0010001110100000,
1110101110101020,
0010001110100000,
1000200011101000,
1000201110101000,
1110101110101000,
1000201110101050,
000000000000000000000000000000000008000000000000,
4,
11002011,
00002100,
11002011,
000000000000200100001010,
11002011,
00002011,
11003030,
4000111000001110,
20120120,
12012111,
20120120,
12303030,
21112020,
12112115,
000000000000000000000000000000000008000000100100,
11102202,
21120211,
21120211,
2000111020001110,
2000111020101010,
21120211,
21122211,
0000111010111010,
0010101010222020,
01011011,
1000111011101000,
11011011,
20020010,
1010001011101000,
7,
8,
00000003,
,
,
,
00303034,
,
00000004,
00000004,
11010104,//66
#GOGOSTART
00210121,
00210121,
00210121,
11211121,
00210121,
00210121,
02022224,//73
#GOGOEND
,
1112,
2221,
1112,
2221,
1112,
4334,
3343,
4343,
20112011,
21102010,
20112011,
21102010,
20112010,
22112040,
11011011,
1110102000001000,
1010001011101000,
1110101110101000,
11011011,
40040030,
1010001011101040,
00011222,
10110110,
11011000,
20220220,
2020002020000011,
1011,
2220202000001000,
1000001000001011,
1000001011101000,//104
#GOGOSTART
1110202011102000,
1110202011101000,
1110202011102000,
1110202011101000,
11011011,
21120010,
2010001011101000,
40043336,
000000000000000000000000000008000000000000
#SCROLL 2
300000,//113
#SCROLL 1
#GOGOEND
,
,
,
#END

COURSE:Normal
LEVEL:7
BALLOON:5,5,12,10,5
#START
00000003,
,
,
,
00303033,
,
00000004,
00000003,
30000003,
00201011,
00201011,
0212,
10201011,
00201011,
00201015,
000000000000000000000000000008000000000000400000,
00000004,
01001100,
10010011,
01001100,
3433,
1212,
1211,
10201025,
000000000000000000000000000000000008000000000000,
4,
11002011,
02,
11002011,
000000200011,
11002011,
00002011,
11003030,
4708,
10110110,
11011000,
20220220,
2333,
1120,
10102005,
000000000000000000000000000000000008000000000000,
10102200,
10110010,
10110010,
33,
33,
10110010,
10011111,
00002001,
01101020,
01011011,
1708,
11011011,
40040010,
11011011,
7,
8,
00000003,
,
,
,
00303033,
,
00000004,
00000003,
30000003,//66
#GOGOSTART
00201011,
00201011,
0212,
10201011,
00201011,
00201015,
000000000000000000000000000008000000000000400000,//73
#GOGOEND
,
1112,
2221,
1112,
2221,
1112,
3004,
04,
44,
2120,
2120,
2121,
2120,
2121,
500000000000000000000000000000000008000000000000,
11011010,
40040000,
11011010,
7008,
11011010,
40040000,
11011033,
,
10110110,
11011000,
20220220,
22022000,
1122,
10102025,
000000000000000000000000000000000008000000700000,
0008,//104
#GOGOSTART
10110110,
11011000,
20220220,
22022000,
11011010,
40040010,
11011010,
40043336,
000000000000000000000000000008000000000000300000,//113
#GOGOEND
,
,
,
#END

COURSE:Easy
LEVEL:5
BALLOON:6,5,6,6,10
#START
00000003,
,
,
,
0333,
,
00000004,
00000003,
00000004,
0111,
0111,
0111,
1111,
0111,
00101015,
000000000000000000000000000008000000000000400000,
00000004,
01001100,
10010010,
01001100,
3430,
1111,
2220,
10101015,
000000000000000000000000000000000008000000000000,
4,
10001011,
02,
10001011,
02,
10001011,
02,
1033,
4303,
10010010,
01001000,
20020020,
0333,
12,
10101005,
000000000000000000000000000008000000000000700000,
00000800,
10010000,
10010000,
33,
33,
10010000,
10010011,
02,
500000000000000000000000000008000000000000000000,
03003000,
0708,
3,
40040000,
3,
7,
8,
00000003,
,
,
,
0333,
,
00000004,
00000003,
30000003,//66
#GOGOSTART
0111,
0111,
0111,
1111,
0111,
00101015,
000000000000000000000000000008000000000000400000,//73
#GOGOEND
,
2022,
0222,
2022,
0222,
2022,
3003,
03,
33,
1110,
1110,
1111,
1110,
1110,
1110,
10010010,
500000000000000000000000000008000000000000000000,
10010010,
7008,
10010010,
500000000000000000000000000008000000000000000000,
10010011,
,
10010010,
01001000,
20020020,
02002000,
1111,
03003005,
000000000000000000000000000008000000000000700000,
0008,//104
#GOGOSTART
10010010,
01001000,
20020020,
02002000,
10011010,
40040000,
10011010,
40040006,
000000000000000000000000000008000000000000300000,//113
#GOGOEND
,
,
,
#END
