//TJADB Project
TITLE:Kimi no Akari
TITLEJA:きみのあかり
SUBTITLE:--Ryo Watanabe feat. Ayano Yasuda
BPM:129
WAVE:Kimi no Akari.ogg
OFFSET:-2.000
DEMOSTART:72.698

COURSE:Edit
LEVEL:8
SCOREINIT:400
SCOREDIFF:100
#START
1011201021102010,
2011201020112110,
1011201021102010,
2011201020112110,
1110201110102010,
2110202110201020,
1110201110102010,
2110202110102010,
2,
1011101110102010,
1011101110102010,
1110201110202010,
1110201110222010,
1011101110102010,
1011101110102010,
1110201110202010,
1110201110222010,
1011201110102010,
1011201110102010,
1110201110202010,
1110201120102010,
1011201110102010,
1011201110102010,
1110201110202010,
1110201120102010,
1022102010221010,
2011201020112020,
1022102010221010,
2011201020112020,
1021102010211010,
2012201020122020,
1021102010211010,
2012201020122020,
1022201022201020,
1022201022201020,
1120102011202010,
2210201022101020,
1122112211221122,
#GOGOSTART
1011101110112021,
1011101110112110,
1011101110112021,
1011101110112110,
1021101020211020,
1021101020211020,
1020112110201121,
1022102110111020,
1022201110112021,
1022201110112110,
1022201110112021,
1022201110112110,
1021101020211020,
1021101020211020,
1020112110201121,
1022102110111020,
1011201110112021,
1011201120112110,
1011201110112021,
1011201120112110,
1021101020211020,
1021101020211020,
1011201111201120,
1020112011112011,
2110201021102111,
1021102010211021,
1120102011201111,
2011201020112011,
2110201021102111,
1021102010211120,
#GOGOEND
#END

COURSE:Oni
LEVEL:5
BALLOON:10
SCOREINIT:690
SCOREDIFF:188
#START
00200021,
00200120,
00200021,
01201020,
10200021,
01211120,
10210120,
10000001,
2,
1212,
10201120,
1212,
10201121,
1212,
10201120,
1212,
10201120,
10210120,
10210121,
10211121,
01210120,
10210120,
10210120,
10211121,
01210121,
10201021,
10201021,
10201021,
10201021,
10201021,
10201021,
10201021,
10201110,
10210120,
11210120,
11020201,
10070000,
00000800,
#GOGOSTART
30121212,
12120111,
12121202,
12120222,
1020102210201020,
0020102010221020,
02121212,
02120222,
30121212,
12120111,
12121212,
12120222,
1020102210200020,
1020102210200020,
12121202,
12120344,
3022102210221020,
1022102210101010,
1022102210221022,
11210222,
1022102210102210,
1022102210202210,
10112102,
02150000,
000008000000100000100000200000100000000000200000,
02150000,
000008000000100000100000200000100000000000300000,
04060000,
000008000000100000100000200000100000000000200000,
10210343,
#GOGOEND
#END

COURSE:Hard
LEVEL:5
BALLOON:8
SCOREINIT:710
SCOREDIFF:203
#START
0202,
0202,
0202,
01201020,
1202,
1202,
10210120,
1202,
1,
1212,
10201120,
10201021,
01201020,
1212,
10201120,
10201021,
01201120,
1212,
10201120,
10201021,
01200120,
1212,
10201120,
10201021,
01200000,
10201021,
10201021,
10201021,
10201021,
10201021,
10201021,
10201021,
10201110,
10210120,
10210120,
11020201,
10070000,
00000800,//38
#GOGOSTART
30121211,
02120212,
10121211,
01210121,
10201120,
10201120,
10201120,
1212,
30121211,
01210121,
00121202,
12021200,
10121202,
10121202,
10121202,
02120344,
30201121,
01210120,
10201121,
01201120,
10212120,
10212120,
10201201,
000000100000500000000000000000000000000008000000,
10201201,
000000100000500000000000000000000000000008000000,
10201103,
04060000,
000008000000100000000000200000100000000000200000,
10210343,//68
#GOGOEND
,
,
,
#END

COURSE:Normal
LEVEL:4
BALLOON:8
SCOREINIT:700
SCOREDIFF:213
#START
0202,
0202,
0202,
0111,
1202,
1202,
1202,
1202,
1,
1211,
1202,
10201021,
01000000,
1211,
1202,
10201021,
01000000,
1212,
1202,
10201021,
01000000,
1212,
1202,
10201021,
0100,
10101011,
1212,
10101011,
1212,
10101011,
1212,
10101011,
1212,
10210000,
10210000,
10210000,
10070000,
00000800,//38
#GOGOSTART
30201011,
1212,
10201011,
1212,
1202,
1202,
1202,
1212,
30201011,
1212,
10201011,
1212,
1202,
1202,
1202,
1210,
10201021,
1212,
10201021,
1212,
1202,
1202,
10202201,
000000100000500000000000000000000000000008000000,
10202201,
000000100000500000000000000000000000000008000000,
10201103,
000000600000000000000000000000000000000008000000,
00101102,
20110333,//68
#GOGOEND
,
,
,
#END

COURSE:Easy
LEVEL:4
BALLOON:6
SCOREINIT:640
SCOREDIFF:233
#START
0202,
0202,
0202,
0111,
0202,
0202,
0202,
0202,
1,
0011,
1,
1110,
1,
0011,
1,
1110,
1,
1012,
1001,
1012,
1,
1012,
1001,
1012,
1,
1111,
1,
2222,
2,
1111,
1,
2222,
2,
10010000,
10020000,
10010000,
17,
00000800,//38
#GOGOSTART
3212,
11,
1212,
11,
1202,
1202,
1202,
1210,
3212,
1,
1212,
1,
1202,
1202,
1202,
1210,
1112,
1110,
1112,
1110,
1202,
1202,
10110000,
10110000,
10110000,
10110000,
10101105,
000000000000000000000000000008000000000000000000,
10110000,
10001033,//68
#GOGOEND
,
,
,
#END
