//TJADB Project
TITLE:Sanpo
TITLEJA:さんぽ
SUBTITLE:--Azumi Inoue/My Neighbor Totoro
SUBTITLEJA:「となりのトトロ」より
BPM:120
WAVE:Sanpo.ogg
OFFSET:-2.226
DEMOSTART:22.198

COURSE:Edit
LEVEL:9
SCOREINIT:400
SCOREDIFF:100
#START
3000222210002222,
100222100222100000200000,
3000222210002222,
100222100222100000200000,
111100200200111100200200,
102220102220100000101010,
102010201110101110201020,
102010201110101110201020,
102010201110101110201020,
102220102220100000000000,
#GOGOSTART
101110101010101110202020,
101110101010101110202020,
101110101110101110202220,
101110101110101010202020,
101110101010101110202020,
101110101010101110202020,
101110101110101110202220,
101110101110101010202020,
#GOGOEND
202220201020101110201020,
202220201020101110201020,
201110201010201110201010,
201110201010201110201010,
101110201020101110201020,
102220201020102220201020,
101110201020101110201020,
102220201020102220201020,
#GOGOSTART
101120201020102220201020,
101120201020102220201020,
101110202020101110202020,
102220102220101010202020,
#GOGOEND
102010201110101110201020,
102010201110101110201020,
102010201110101110201020,
102220102220100000000000,
#GOGOSTART
101110101010101110202020,
101110101010101110202020,
101110101110101110202220,
101110101110101010202020,
101110101010101110202020,
101110101010101110202020,
101110101110101110202220,
101110101110101010202020,
#GOGOEND
202220201020101110201020,
202220201020101110201020,
201110201010201110201010,
201110201010201110201010,
101110201020101110201020,
102220201020102220201020,
101110201020101110201020,
102220201020102220201020,
#GOGOSTART
101120201020102220201020,
101120201020102220201020,
101110202020101110202020,
102220102220101010202020,
101111101010102220201010,
101111101010102220201010,
101110202020101110202020,
102220102220102220102210,
102220102220102220102210,
100222200300,
#GOGOEND
#END

COURSE:Oni
LEVEL:5
BALLOON:38
SCOREINIT:690
SCOREDIFF:188
#START
11,
1110,
33,
3330,
11221212,
100111100000,
300111100200,
300111100200,
300000101010100200100200,
100111100000,
#GOGOSTART
101101101202,
101101101202,
101111101202,
101111101202,
101101101202,
101101101202,
101101101222,
500000000000000000000008000000000000000000000000,
#GOGOEND
202202101202,
202202101202,
101111101222,
500000000000000000000000000000000008000000000000,
101201101202,
500000000000000000000008000000001000200000002000,
101201101202,
500000000000000000000000000000000008000000000000,
#GOGOSTART
101101101222,
101121100101,
300222300222,
302102100000,
#GOGOEND
300222100200,
300222100200,
300000202020100200100200,
100111100000,
#GOGOSTART
101201201102,
101201201102,
101111101202,
101111101202,
102102101102,
102102101102,
101101101222,
500000000000000000000008000000000000000000000000,
#GOGOEND
202202101202,
202202101202,
101111101222,
500000000000000000000000000000000008000000000000,
101201101202,
500000000000000000000008000000001000200000002000,
101201101202,
500000000000000000000000000000000008000000000000,
#GOGOSTART
101101101222,
101121100101,
300222300222,
302102101222,
101101101222,
101121100101,
3434,
7,
,
800222200300,
#GOGOEND
#END

COURSE:Hard
LEVEL:4
BALLOON:14,26
SCOREINIT:760
SCOREDIFF:220
#START
11,
1110,
33,
3330,
7,
800111100000,
300111100100,
300111100100,
300000101010100100100100,
100111100000,
#GOGOSTART
101100101100,
101100102200,
101101100200,
101101100000,
101100101100,
101100102200,
101101100200,
102202200000,
#GOGOEND
202202000000,
202202000000,
101100101100,
5000000000000000000000000000000000000000000000080000000000000000,
101100101100,
5000000000000000000000000000000800000000000000000000000000000000,
3333,
6000000000000000000000000000000000000000000000080000000000000000,//26
#GOGOSTART
101101100200,
101101100000,
33,
6000000000000000000000000000000000000000000000080000000000000000,//30
#GOGOEND
300111100100,
300111100100,
300000101010100100100100,
100111100000,//34
#GOGOSTART
101100101100,
101100102200,
101101100200,
102202200000,
101100101100,
101100102200,
101101100200,
102202200000,//42
#GOGOEND
202202000000,
202202000000,
101100101100,
5000000000000000000000000000000000000000000000080000000000000000,
101100101100,
5000000000000000000000000000000800000000000000000000000000000000,
3333,
3,//50
#GOGOSTART
101101101100,
101101100000,
33,
6000000000000000000000000000000000000000000000080000000000000000,
101101101100,
101101100000,
3434,
7,
,
8003,//60
#GOGOEND
,
,
#END

COURSE:Normal
LEVEL:1
BALLOON:14,16
SCOREINIT:950
SCOREDIFF:483
#START
11,
1110,
33,
3330,
7,
8110,
3111,
3111,
30101101,
1110,//10
#GOGOSTART
1111,
1112,
1112,
1110,
1111,
1112,
1112,
1220,//18
#GOGOEND
200202000000,
200202000000,
1111,
5000000000000000000000000000000000000000000000080000000000000000,
1111,
5000000000000000000000000000000800000000000000000000000000000000,
3333,
6000000000000000000000000000000000000000000000080000000000000000,//26
#GOGOSTART
1112,
1110,
33,
6000000000000000000000000000000000000000000000080000000000000000,//30
#GOGOEND
3111,
3111,
30101101,
1110,//34
#GOGOSTART
1111,
1112,
1112,
1220,
1111,
1112,
1112,
1220,//42
#GOGOEND
200202000000,
200202000000,
1111,
5000000000000000000000000000000000000000000000080000000000000000,
1111,
5000000000000000000000000000000800000000000000000000000000000000,
3333,
3,//50
#GOGOSTART
1111,
1110,
33,
6000000000000000000000000000000000000000000000080000000000000000,
1111,
1110,
3434,
7,
,
8003,//60
#GOGOEND
,
,
#END

COURSE:Easy
LEVEL:1
BALLOON:10,16
SCOREINIT:860
SCOREDIFF:555
#START
11,
1110,
33,
3330,
6000000000000000000000000000000000000000000000000000000000000008,
,
31,
1110,
11,
1110,//10
#GOGOSTART
11,
11,
1011,
1,
11,
1,
11,
1,//18
#GOGOEND
2,
2,
11,
5000000000000000000000000000000800000000000000000000000000000000,
11,
5000000000000000000000000000000800000000000000000000000000000000,
33,
6000000000000000000000000000000800000000000000000000000000000000,//26
#GOGOSTART
1110,
5000000000000000000000000000000800000000000000000000000000000000,
33,
9009,//30
#GOGOEND
8,
,
,
,//34
#GOGOSTART
11,
11,
1011,
1,
11,
1,
11,
1,//42
#GOGOEND
2,
2,
11,
5000000000000000000000000000000800000000000000000000000000000000,
11,
5000000000000000000000000000000800000000000000000000000000000000,
33,
3,//50
#GOGOSTART
1110,
1110,
33,
6000000000000000000000000000000800000000000000000000000000000000,
1110,
1110,
33,
7,
,
8003,//60
#GOGOEND
,
,
#END
