//TJADB Project
TITLE:Shiny Kung-fu Revival
TITLEJA:Shiny Kung-fu Revival
SUBTITLE:--t+pazolite
SUBTITLEJA:t+pazolite
BPM:222.2
WAVE:Shiny Kung-fu Revival.ogg
OFFSET:-1.982
DEMOSTART:10.621

COURSE:Oni
LEVEL:9
SCOREINIT:390
SCOREDIFF:98
#START
30000003,
,
30000003,
#BARLINEOFF
000000
#SCROLL 3
40,
#BARLINEON
#SCROLL 1
30030303,
01323232,
32323232,
333330
#SCROLL 3
40,
#GOGOSTART
#SCROLL 1
3022102210220010,
02211020,
3022102210220010,
02221020,
3022102210220010,
02211020,
3022102210220010,
01112220,
3022102210220010,
0020201020112000,
3022102210220010,
0020202011202000,
3022102210220010,
0020201020112000,
3022102210220010,
02221110,
#GOGOEND
3202,
00220030,
3202,
30030030,
30220030,
30020030,
3000203030002220,
3020302030111111,
1000100010012010,
1010202011102020,
1000100010012010,
1002101022102000,
1000100010012010,
1010202011102020,
1001202010021010,
1202102012221020,
1000100010012010,
2010202011102010,
1000100010012010,
2002101022102000,
1012102012101012,
1020121010121020,
1111222211112222,
500000000000000000000000000000000008000000000000,
#BARLINEOFF
#SCROLL 0.67
3,
,
,
,
#BARLINEON
10011000,
#BARLINEOFF
10011000,
#BARLINEON
10011003,
#BARLINEOFF
0000
#SCROLL 3
4040,
#BARLINEON
#SCROLL 1
11201121,
0011202010002000,
11201121,
0011202010002220,
1000222010002210,
0022201000102020,
1020102012222250,
000000000008000000000000400000000000400000000000,
#SCROLL 7.65
6,
000000000000000000000000000000000008000000000000,
#SCROLL 1
3,
,
30030030,
03003030,
33333333,
#BARLINEOFF
000
#SCROLL 3
4,
#GOGOSTART
#BARLINEON
#SCROLL 1
1022102010221020,
1022102010221010,
1022102210222010,
0020202010111102,
1022102010221020,
1111102010221010,
1022201000200010,
0011111120002000,
1022102010221010,
1022102010221010,
1022102210222010,
000200200000200000200000100020001000200200200200,
1010222210202210,
2012221000112020,
1020102012222250,
000008000000400000000000400000000000000000000000,
#GOGOEND
30000004,
0020201022112211,
1020102010222010,
0111
#SCROLL 3
40
#SCROLL 1
22,
#GOGOSTART
1222122212222212,
1212221000112020,
1020102012222250,
#GOGOEND
000000000008000000000000400000000000400000000000,
#GOGOSTART
3022102210220010,
02211020,
3022102210220010,
02221020,
3022102210220010,
02211020,
3022102210220010,
01112220,
3022102210222210,
0020201020112000,
3022102210221110,
0020202011202000,
3022102210222210,
0020201020112000,
3022102210221110,
0020202011102020,
#GOGOEND
#BARLINEOFF
0
#SCROLL 3
400,
#END

COURSE:Hard
LEVEL:7
SCOREINIT:390
SCOREDIFF:108
#START
30000003,
,
30000003,
,
30030303,
0111,
3333,
33333000,
#GOGOSTART
3011101110100010,
01111010,
3011101110100010,
01111020,
3011101110100010,
01111010,
3011101110100010,
01112220,
3022202220200020,
02222020,
3022202220200010,
02222020,
3022202220200020,
02222020,
3022202220200010,
02221110,//24
#GOGOEND
3,
2022,
3,
2022,
3022,
3022,
3232,
3330,
10101021,
01202210,
10101011,
2000200022202000,
10101021,
01202210,
10211021,
0010200022202000,
10101021,
01202210,
10101011,
2000200022202000,
10210101,
01212020,
11221122,
500000000000000000000000000000000008000000000000,
#SCROLL 0.7
#BARLINEOFF
3,
,
,
,
#BARLINEON
10011000,
#BARLINEOFF
10011000,
#BARLINEON
10011003,
#BARLINEOFF
0044,
#BARLINEON
#SCROLL 1
11201021,
01221020,
11201021,
0010202010002220,
1000222010002010,
0022201000102020,
1020102000222050,
000000000008000000000000400000000000400000000000,
#SCROLL 8
6,
000000000000000000000000000000000008000000000000,
#SCROLL 1
3,
,
30030030,
03003030,
33333333,
,//72
#GOGOSTART
10101021,
01221020,
10101022,
0010202010002220,
10101021,
01221020,
10210101,
0022202010002000,
10101021,
01221020,
10101022,
0010202010002220,
1000222010002010,
0022201000102020,
1020102000222050,
000008000000400000000000400000000000000000000000,//88
#GOGOEND
30000003,
02221020,
10101021,
0020202040002220,//92
#GOGOSTART
1000222010222010,
0022201000102020,
1020102000222050,//95
#GOGOEND
000000000008000000000000400000000000400000000000,//96
#GOGOSTART
3011101110100010,
01111010,
3011101110100010,
01111020,
3011101110100010,
01111010,
3011101110100010,
01112220,
3022202220200020,
02222020,
3022202220200010,
02222020,
3022202220200020,
02222020,
3022202220200010,
02221122,//112
#BARLINEOFF
#GOGOEND
0
#SCROLL 3
400,
,
#END

COURSE:Normal
LEVEL:6
#START
30000003,
,
30000003,
,
30030303,
0111,
3333,
600000000000000000000008000000000000000000000000,//8
#GOGOSTART
10101101,
01101000,
10101101,
02202000,
10101101,
01101000,
10101105,
000000000000000000000000000000000008000000000000,
10101101,
01101000,
10101101,
01102000,
10101101,
01101000,
10101101,
01102020,//24
#GOGOEND
3,
2022,
3,
2022,
3022,
3022,
33,
3330,
10101011,
10101110,
10101011,
10102220,
10101011,
10101110,
10011001,
10222000,
10101011,
10201120,
10101011,
10202220,
10110101,
01102020,
11201120,
500000000000000000000000000000000008000000000000,
#SCROLL 0.7
#BARLINEOFF
3,
,
,
,
#BARLINEON
10011000,
#BARLINEOFF
10011000,
#BARLINEON
10011003,
#BARLINEOFF
0044,
#BARLINEON
#SCROLL 1
11102022,
02201010,
11102022,
02201022,
10201021,
02210222,
10101025,
000000000008000000000000400000000000400000000000,
#SCROLL 8
6,
000000000000000000000000000000000008000000000000,
#SCROLL 1
3,
,
30030030,
03003030,
600000000000000000000000000000000000000008000000,
,//72
#GOGOSTART
10101011,
1122,
10101011,
02202000,
10101011,
1122,
10110201,
02221000,
10101011,
1122,
10101011,
02202000,
10201021,
02210222,
10101021,
0440,//88
#GOGOEND
30000003,
02202020,
10101022,
02224022,//92
#GOGOSTART
10201021,
02210222,
10101025,//95
#GOGOEND
000000000008000000000000400000000000400000000000,//96
#GOGOSTART
10101101,
01101000,
10101101,
02202000,
10101101,
01101000,
10101105,
000000000000000000000000000000000008000000000000,
10101101,
01101010,
10101101,
01102020,
10101101,
01101010,
10101101,
01102020,//112
#BARLINEOFF
#GOGOEND
0
#SCROLL 3
400,
,
#END

COURSE:Easy
LEVEL:4
#START
30000003,
,
30000003,
,
3,
3,
33,
600000000000000000000008000000000000000000000000,//8
#GOGOSTART
10101001,
0110,
10101001,
0220,
10101001,
0110,
10101005,
000000000000000000000000000000000008000000000000,
10101001,
0110,
10101001,
0220,
10101001,
0110,
10101001,
0220,//24
#GOGOEND
3,
22,
3,
22,
32,
32,
33,
3330,
1110,
1110,
1110,
2220,
1110,
1110,
11,
2220,
1110,
1110,
1110,
2220,
5,
000000000000000000000008000000000000000000000000,
5,
000000000000000000000008000000000000000000000000,
#SCROLL 0.7
#BARLINEOFF
3,
,
,
,
#BARLINEON
12,
#BARLINEOFF
12,
#BARLINEON
10002003,
#BARLINEOFF
0044,
#BARLINEON
#SCROLL 1
10101001,
0220,
10101001,
0220,
10101001,
01010000,
10101005,
000000000008000000000000400000000000400000000000,
#SCROLL 8
6,
000000000000000000000000000000000008000000000000,
#SCROLL 1
3,
,
30030030,
03003030,
600000000000000000000000000000000000000008000000,
,//72
#GOGOSTART
10101001,
0120,
10101001,
0220,
10101001,
0120,
10010101,
0220,
10101001,
0120,
10101001,
0220,
10101001,
01010000,
10101001,
0440,//88
#GOGOEND
30000003,
0222,
10101001,
0440,//92
#GOGOSTART
10101001,
01010000,
10101005,//95
#GOGOEND
000000000008000000000000400000000000400000000000,//96
#GOGOSTART
10101001,
0110,
10101001,
0220,
10101001,
0110,
10101005,
000000000000000000000000000000000008000000000000,
10101001,
0110,
10101001,
0220,
10101001,
0110,
10101001,
0222,//112
#BARLINEOFF
#GOGOEND
0
#SCROLL 3
400,
,
#END
