//TJADB Project
TITLE:Kaze no Fantasy
TITLEJA:風のファンタジー
SUBTITLE:--Keiichi Okabe feat. Youko Takamitsu
BPM:182
WAVE:Kaze no Fantasy.ogg
OFFSET:-2.758
DEMOSTART:47.058

COURSE:Oni
LEVEL:8
SCOREINIT:310
SCOREDIFF:90
#START
10101202,
1020002010221020,
10101202,
1020002010221020,
10101202,
1020002010221020,
12121212,
1020102010221020,
10201121,
01201121,
10201121,
0022201010222010,
10201121,
01201121,
10201121,
1022201010222000,
1020102010221020,
1020102010221020,
1022102010221020,
1022201010222010,
1020102010221020,
1020102010221020,
1022102010221020,
1022102010222020,
1000201110102010,
0010201110102010,
0010201110200011,
1020112010201120,
1000201110102010,
0010201110200010,
1000201110201022,
2020102220200020,
1110201111200030,
03030000,//34
#GOGOSTART
1020102011201020,
0020102011102020,
1020102011201020,
0020102011102020,
1022102010221020,
1022102010221220,
1020112011222010,
0011102000202011,
1020102011111020,
1020102011221020,
1020102011111020,
1020102011221020,
1111101022222020,
1111101022222020,
1110111011101030,
0030003020221000,
5,
000000000000000000000000000008000000000000000000,
1020102010221020,
1022102012221020,
1020102010221020,
1020102010221020,
1022102210221022,
1022122011102220,//58
#GOGOEND
1000201110102010,
01201201,
1000200022200020,
0022202010202020,
1000201110102010,
01202205,
,
000000000000000000000000000008000000000000000000,
10201203,
03030000,
3,
,
3,
,
33,
33,
3022102210221030,
03030000,//76
#GOGOSTART
1020112010201120,
1020102011112020,
1020112010201120,
1111202011112020,
1022102010221020,
1022102010221220,
1020112011222010,
0011102000404011,
1020112010201120,
1020112011221020,
1020112010201120,
1020112011221020,
1111101022222020,
1111101022222020,
1111222211112030,
0030003020221000,
5,
000000000000000000000000000000000008000000000000,
1020102010221020,
1020102012221020,
1020102010221020,
1020102010221020,
1022102210221030,
03030306,
000000000000000000000000000000000000000000000008,
#GOGOEND
#END

COURSE:Hard
LEVEL:6
SCOREINIT:400
SCOREDIFF:90
#START
10101202,
12021212,
10101202,
12021212,
10101202,
12021212,
12121212,
12121000,
10201121,
01201120,
10201121,
01201120,
10201121,
01201120,
10201120,
12,
12121212,
02120210,
12121212,
02120220,
12121212,
02120210,
12121210,
1,
10210121,
01201121,
01201201,
12220000,
10210121,
01201205,
,
000000000000000000000000000000000000000008000000,
20202203,
03030000,//34
#GOGOSTART
1020100011111000,
12121210,
1020100011111000,
12121210,
12121210,
12121210,
12101113,
03030000,
1020100011111000,
12121210,
1020100011111000,
12121210,
1111100022222000,
1111100022222000,
11111113,
03030000,
5,
000000000000000000000000000000000008000000000000,
12121212,
12121210,
12121212,
12121210,
12121212,
1020102210000000,//58
#GOGOEND
10021021,
00202100,
10202102,
02120000,
10021021,
00202105,
,
000000000000000000000000000008000000000000000000,
10101103,
03030000,
3,
,
3,
,
33,
33,
11111113,
03030000,//76
#GOGOSTART
1020100011111000,
12121210,
1020100011111000,
12121210,
12121210,
12121210,
12101113,
03030000,
1020100011111000,
12121210,
1020100011111000,
12121210,
1111100022222000,
1111100022222000,
11111113,
03030000,
5,
000000000000000000000000000000000008000000000000,
10101202,
12021212,
10101202,
12021212,
12121213,
03030306,
000000000000000000000000000000000000000000000008,//101
#GOGOEND
,
,
,
,
,
#END

COURSE:Normal
LEVEL:6
BALLOON:10,13,10,13
SCOREINIT:520
SCOREDIFF:130
#START
10101011,
1011,
10101011,
1011,
10101011,
1011,
10101011,
1,
1111,
1110,
1111,
1110,
1111,
1110,
1111,
33,
10101110,
1110,
10101110,
1110,
10101110,
1110,
10101110,
1,
12,
12,
10101110,
11101000,
12,
12,
5,
000000000000000000000000000008000000000000000000,
7,
08,//34
#GOGOSTART
30301110,
1110,
30301110,
1110,
1111,
1110,
11101111,
,
30301110,
1110,
30301110,
1110,
1111,
1111,
11101111,
0003,
7,
00000800,
1111,
1110,
2222,
2220,
1111,
1110,//58
#GOGOEND
22,
2,
2220,
2220,
22,
22,
5,
000000000000000000000000000008000000000000000000,
7,
08,
3,
,
3,
,
33,
33,
30000003,
03030000,//76
#GOGOSTART
30301110,
1110,
30301110,
1110,
1111,
1110,
11101111,
,
30301110,
1110,
30301110,
1110,
1111,
1111,
11101111,
0003,
7,
00000800,
10101011,
1011,
10101011,
1011,
10101003,
03030306,
000000000000000000000000000000000000000008000000,//101
#GOGOEND
,
,
,
,
,
#END

COURSE:Easy
LEVEL:4
BALLOON:8,8,8,8
SCOREINIT:420
SCOREDIFF:100
#START
1110,
1011,
1110,
1011,
1110,
1011,
1110,
1,
1111,
11,
1111,
1,
1111,
11,
1110,
3,
1111,
11,
1111,
1,
1111,
11,
1111,
1,
12,
12,
1110,
1110,
12,
12,
5,
000000000000000000000000000008000000000000000000,
7,
08,//34
#GOGOSTART
1111,
1,
1111,
1,
1110,
1110,
1111,
1,
1111,
1,
1111,
1,
1110,
1110,
5,
000000000008000000000000000000000000000000000000,
7,
08,
1111,
12,
1111,
12,
1111,
1,//58
#GOGOEND
22,
2220,
2220,
2220,
22,
22,
5,
000000000000000000000000000008000000000000000000,
7,
08,
3,
,
3,
,
33,
33,
3,
3,//76
#GOGOSTART
1111,
1,
1111,
1,
1110,
1110,
1111,
1,
1111,
1,
1111,
1,
1110,
1110,
5,
000000000008000000000000000000000000000000000000,
7,
08,
1110,
1011,
1110,
1011,
1111,
3336,
000000000000000000000000000000000000000008000000,//101
#GOGOEND
,
,
,
,
,
#END
