//TJADB Project
TITLE:Uso
TITLEJA:嘘
SUBTITLE:--SID/Fullmetal Alchemist: Brotherhood
SUBTITLEJA:「鋼の錬金術師FULLMETAL ALCHEMIST」より
BPM:173
WAVE:Uso.ogg
OFFSET:-1.579
DEMOSTART:68.322

COURSE:Oni
LEVEL:6
SCOREINIT:670
SCOREDIFF:160
#START
20002002,
02000000,
20202022,
02200020,
2022,
2222,
22,
2022,
20002022,
02002020,
20202022,
02200000,
22,
20202025,
#BPMCHANGE 180
000000000000000000000000000000000000000008000000,
,
10201211,
0011201010111000,
10201211,
01201120,
10201211,
0010200011102000,
10201211,
01201120,
10201120,
1010200010102011,
10201211,
01201120,
10201211,
0010200011102000,
10201120,
10201120,
10210120,
2000102022101010,
1010200010102011,
11212110,
1010200010102011,
11212011,
01211201,
01201121,
01201201,
01201120,
1010200010102011,
11212111,
0010200010102011,
1010201010102011,
1000100020001011,
11012010,
30303300,
1020102030300011,
#GOGOSTART
11201121,
01201120,
11201121,
1020002010112000,
11201120,
11201120,
10201120,
1010201022202220,
11201121,
01201120,
11201120,
1020002010112000,
11201120,
30304046,
000000000000000008000000000000000000000000000000,
#GOGOEND
10201201,
0010200010112000,
11201120,
2000102010112000,
10201201,
0010200010112000,
10201120,
500000000000000000000008000000000000000000000000,
10201201,
0010200010112000,
10201120,
2000102010112000,
10201120,
30403033,
#END

COURSE:Hard
LEVEL:5
SCOREINIT:690
SCOREDIFF:198
#START
20002002,
02000000,
20202002,
02200000,
22,
2222,
22,
2,
20002002,
02000000,
20002022,
02200000,
22,
20202025,
#BPMCHANGE 180
000000000000000000000000000000000000000008000000,
,
10201201,
01201000,
10201201,
01201120,
10201201,
01201120,
10201201,
01201120,
10201120,
1,
10201201,
01201120,
10201201,
01201120,
10201120,
10201120,
10210120,
10020000,
11201021,
01022110,
11201021,
01022011,
01211201,
01201121,
01201201,
01201120,
11201021,
01022110,
11201021,
01022011,
10102011,
11012010,
30303300,
,
#GOGOSTART
11201120,
11201020,
11201120,
11021200,
11201120,
11201020,
10201120,
1,
11201120,
11201020,
11201120,
11021200,
11201120,
30304046,
000000000000000008000000000000000000000000000000,
#GOGOEND
10201201,
01201120,
10201120,
20121120,
10201201,
01201120,
10201120,
500000000000000000000008000000000000000000000000,
10201201,
01201120,
10201120,
20121120,
10201120,
30403033,
#END

COURSE:Normal
LEVEL:5
BALLOON:12
SCOREINIT:810
SCOREDIFF:255
#START
22,
2,
22,
2200,
22,
2022,
22,
2,
22,
2200,
22,
2200,
22,
2222,
#BPMCHANGE 180
500000000000000000000000000000000000000008000000,
,
10001100,
1110,
10001100,
1120,
10001100,
1120,
10001100,
10001100,
12,
1,
10001100,
1120,
10001100,
1120,
10001100,
10001100,
1021,
2,
11002020,
2220,
11002020,
2220,
10201100,
10201100,
10201100,
1,
11002020,
2220,
11002020,
2220,
0333,
0333,
4444,
,
#GOGOSTART
10101110,
1011,
1212,
11100000,
10201110,
1212,
33,
3,
10201110,
1011,
10201110,
1100,
10201110,
7,
8,
#GOGOEND
1102,
1102,
1102,
1102,
1102,
1102,
1212,
1,
1102,
1102,
1102,
1102,
1212,
30303033,
#END

COURSE:Easy
LEVEL:3
BALLOON:6
SCOREINIT:660
SCOREDIFF:260
#START
2,
2,
2,
2200,
2,
2,
2022,
2,
2,
2,
2,
2200,
2,
2022,
#BPMCHANGE 180
500000000000000000000000000000000000000000000008,
,
11,
1110,
11,
22,
11,
2,
11,
22,
11,
2,
11,
22,
11,
2,
11,
22,
1,
2,
21,
1110,
21,
1110,
1011,
12,
1011,
1,
21,
1110,
21,
1110,
11,
22,
44,
3,
#GOGOSTART
1011,
1011,
12,
1110,
1011,
12,
3333,
3,
1011,
12,
1011,
1,
12,
7,
8,
#GOGOEND
11,
2001,
11,
2001,
11,
22,
12,
1001,
11,
2001,
11,
2001,
11,
3033,
3,
#END
