//TJADB Project
TITLE:RPG
TITLEJA:RPG
SUBTITLE:--SEKAI NO OWARI/Crayon Shin-chan
SUBTITLEJA:「映画クレヨンしんちゃん バカうまっ!B級グルメサバイバル」より
BPM:135
WAVE:RPG.ogg
OFFSET:-2.003
DEMOSTART:70.623

COURSE:Oni
LEVEL:6
BALLOON:20,45
SCOREINIT:810
SCOREDIFF:180
#START
10011001,
01011220,
10011001,
01011220,
10211021,
01011220,
10211021,
01011220,
10211021,
01011221,
01011227,
,
80000220,
10211021,
01011220,
10211021,
01011220,
10211021,
1001101000202000,
11210121,
0010201010202220,
1000201110002010,
0011201010202000,
1000201110002010,
0011201010202000,
1000201110012010,
0011201010202000,
1011201000112010,
00002121,
10010441,
11100440,
11210102,
01111221,
0000001010202022,
10011222,
1011203000112030,
0011203000000000,
2020202220222022,
23333000,
#GOGOSTART
1000201010002011,
11210122,
1000201110102010,
0011201010202020,
1000201110102010,
0011201010202010,
0010201110202010,
0011202210102020,
1000201010002011,
11210122,
1000201110102010,
0011201110202020,
1000201110102010,
0011203030404030,
0011203030404070,
,
000000000000000000000000000000000000000000000008,
#GOGOEND
#END

COURSE:Hard
LEVEL:4
BALLOON:16,20,30
SCOREINIT:940
SCOREDIFF:285
#START
10011001,
01011000,
10011001,
01011000,
10011001,
01011220,
10011001,
01011220,
10011001,
01011221,
01011229,
0009,
8,
10011001,
10000220,
10011001,
01011220,
10011001,
10110220,
10110222,
,
10011021,
01000220,
10011021,
01000220,
10011021,
01010220,
10110222,
0022,
10010220,
10100220,
10110205,
000000000000000008000000000000100000100000100000,
00000222,
10000222,
10210343,
03490000,
00000900,
8,//39
#GOGOSTART
10011021,
01011220,
10011021,
01011220,
10011021,
01011221,
01033446,
000000000000000008000000000000000000000000000000,
10211021,
01011220,
10211021,
01011220,
10211021,
01011221,
01033449,
,
09,
8,
,//58
#GOGOEND
#END

COURSE:Normal
LEVEL:3
BALLOON:10,16,20
SCOREINIT:1160
SCOREDIFF:505
#START
11,
1110,
11,
1110,
10011000,
1120,
10011000,
1120,
10011000,
1120,
10102009,
0009,
8,
1110,
1,
1110,
1,
2220,
2,
20202004,
,
1120,
1,
1120,
1,
2220,
22,
20202004,
,
12,
1100,
10101005,
000000000000000008000000000000000000000000000000,
1001,
1,
30330033,
00390000,
00000900,
8,//39
#GOGOSTART
10011000,
1120,
10011000,
1120,
20022000,
2220,
10011016,
000000000000000008000000000000000000000000000000,
10011010,
1120,
10011010,
1120,
20022020,
2220,
10011019,
,
09,
8,
,//58
#GOGOEND
#END

COURSE:Easy
LEVEL:3
BALLOON:7,11,15
SCOREINIT:1070
SCOREDIFF:675
#START
1,
11,
1,
11,
1,
1110,
1,
1110,
1,
1110,
10001009,
0009,
8,
11,
1,
10001001,
,
22,
2,
20002002,
,
10001001,
,
10001001,
,
20002002,
,
20202004,
,
1,
1100,
10101005,
000000000000000008000000000000000000000000000000,
3,
3,
500000000008000000500000000000000008000000500000,
000000000008000000900000000000000000000000000000,
00000900,
8,//39
#GOGOSTART
11,
1110,
11,
1110,
22,
2220,
30303006,
000000000000000008000000000000000000000000000000,
11,
2220,
11,
2220,
11,
2220,
30303009,
,
09,
8,
,//58
#GOGOEND
#END
