//TJADB Project
TITLE:Sotsu Omeshiki
TITLEJA:そつおめしき
SUBTITLE:--Kawagen Collagen feat. unmo
SUBTITLEJA:feat.unmo
BPM:200
WAVE:Sotsu Omeshiki.ogg
OFFSET:-3.702
DEMOSTART:72.070

COURSE:Oni
LEVEL:10
SCOREINIT:440
SCOREDIFF:100
#START
0000001110112000,
1022101012201020,
1020102210121020,
1022101012201020,
1011101210221020,
10211212,
02011020,
10211212,
0020002220111000,
1022101012201020,
1020102210121020,
1022101012201020,
1211101211100000,
1010222220100010,
0010122220102000,
1010222220100010,
0010122220101020,
1010222220100010,
0010122220201020,
1010222220100010,
0010102220102000,
1010222220100010,
0010122220201020,
1010222220100010,
0010122220102010,
1010222220100010,
0010122220102000,
1010222220100010,
0010100022102000,
1020122210221020,
1212201020101020,
1020122210221020,
1212201020101020,
1020122210221020,
1212201020101020,
1020122210122010,
2210102022221111,
1020122210221020,
1212201020101020,
1020122210221020,
1212201020101020,
1020122210221020,
1212201020101020,
1020122210122010,
2212102022221111,
2000300030222220,
3022203000302222,
2000300030222030,
03030220,
40302302,
3000003000302022,
2011200010222030,
0020300020300022,
10212022,
12102022,
12212003,
0030000011111111,//57
#GOGOSTART
1222102012221010,
1212201012221020,
1222102012221010,
1212201012221020,
10302302,
3000201210102000,
1020102210201012,
1010201210201022,
2222122222122212,
2222122222122212,
2212122222121222,
2212121122121222,
2000122220122220,
2201102201102000,
1022122012221000,
1012221012221222,
1000201212202020,
0020001212202220,
1000201212201020,
0020001210222000,
1020101212201020,
1220102212101220,
1020101212201020,
202020200200200000101010100100100000202020200200,
200000101010100100100000100000000000000000000000,//82
#GOGOEND
2220100020100020,
10110020,
#END

COURSE:Hard
LEVEL:7
#START
0004,
10211020,
10201220,
1212,
1020202020222020,
10211112,
02000000,
10211112,
02000000,
10211020,
10201220,
1212,
30030000,
11002101,
01102000,
11002101,
01102010,
11002101,
01102000,
11002101,
0010102220102000,
11002101,
01102000,
11002101,
01102010,
11002101,
01202000,
22022202,
0020200022202000,
1000200010222000,
1022201000202000,
1000200010222000,
1022201000202000,
1000200010222000,
1022201000202000,
2022202220222020,
0022202022202000,
1000200010222000,
1022201000202000,
1000200010222000,
1022201000202000,
1000200010222000,
1022201000202000,
2022202220222020,
0022202022202000,
00301100,
1000001000100011,
10401101,
000000100000000000500000000000000000000000000008,
00301100,
1000001000100011,
10401101,
00100100,
10012000,
1120,
10012003,
03000000,//57
#GOGOSTART
12101211,
12101210,
12101211,
1020100010111000,
10401401,
40140300,
12101220,
1020100010222000,
12101211,
12101210,
11111111,
1110111011101111,
10300300,
30030340,
12101220,
100000200000100000000000500000000000000000000008,
00211112,
02011020,
10211112,
0020002020111000,
10211020,
10201220,
1212,
2220202020201110,
11114000,//82
#GOGOEND
00200200,
10010020,
,
,
#END

COURSE:Normal
LEVEL:6
BALLOON:10
#START
#SCROLL 0.8
0004,
10101110,
11101110,
10101110,
11102020,
10111002,
02000000,
10111002,
02000000,
10101110,
11101110,
10101110,
500000000008000000500000000008000000000000000000,
1,
0111,
1011,
00000011,
10001101,
0111,
10011101,
01102020,
1,
0111,
1011,
00000011,
10000101,
0222,
20011101,
01101010,
10101110,
11010101,
10101110,
11010101,
10101110,
11010101,
10101101,
01102020,
10101110,
11010101,
10101110,
11010101,
10101110,
11010101,
10101101,
01102020,
0330,
30030000,
00303002,
000000200000000000500000000000000000000000000008,
0330,
30030000,
00303003,
00200200,
10011001,
01011000,
10011004,
04000000,//57
#GOGOSTART
10101110,
10101110,
11101110,
10101111,
10400400,
30030400,
10101110,
22202000,
10101110,
10101110,
11101110,
11111111,
10300300,
30040400,
10101110,
22202020,
10111002,
02000000,
10111002,
02000000,
10101110,
11101110,
11111111,
7,
00000800,//82
#GOGOEND
00100100,
10010020,
,
,
#END

COURSE:Easy
LEVEL:4
BALLOON:2,2,4,4
#START
#SCROLL 0.8
,
11,
1110,
12,
500000000000000000000008000000000000000000000000,
10000007,
0800,
10000007,
0800,
11,
1110,
11,
3,
10000101,
02,
10000101,
02,
10000101,
02,
10000101,
0220,
10000101,
02,
10000101,
02,
10000101,
02,
10000101,
0220,
11,
1110,
11,
1110,
11,
1110,
11,
2220,
11,
1110,
11,
1110,
11,
1110,
11,
2220,
0330,
600000000000000000000000000000000008000000000000,
00303007,
0008,
0330,
600000000000000000000000000000000008000000000000,
00303003,
0300,
12,
12,
10002003,
03000000,//57
#GOGOSTART
11,
11,
1110,
1111,
00300300,
3,
12,
11,
11,
11,
1110,
500000000000000000000000000000000008000000000000,
00300300,
3,
12,
1115,
000000000000000000000000000008000000000000100000,
01000000,
10000001,
01000000,
11,
1110,
11,
5,
000000000000000000000008000000000000000000000000,//82
#GOGOEND
00100100,
10010020,
,
,
#END
