//TJADB Project
TITLE:Soroban 2000
TITLEJA:十露盤2000
SUBTITLE:--Linda AI-CUE
BPM:170
WAVE:Soroban 2000.ogg
OFFSET:-1.715
DEMOSTART:80.651

COURSE:Oni
LEVEL:10
BALLOON:15,15,15,15,15,15
SCOREINIT:470
SCOREDIFF:108
#START
1012110112207000,
0000000000080000,
1012210112207000,
0000000000080000,
500000000000000000000000000000000000000008000000,
500000000000000000000000000000000000000008000000,
1222201222201020,
222200000000000000000000,
11,
1020201000201212,
0022201000201212,
1020201000201212,
0022201000201212,
1022201000201212,
0020201000201212,
1022201000201212,
0020202011221122,
#BPMCHANGE 192
,
2222,//19
#GOGOSTART
1020201020201022,
11211212,
1010112010101020,
1010201012201022,//23
#GOGOEND
,
3,
,
1222,//27
#GOGOSTART
1020201020201022,
1010201010221022,
1010112210101022,
1010201012201222,
1020201020201022,
1010201010221022,
1010112210101022,
1010201012201222,//35
#GOGOEND
,
3,
#BPMCHANGE 170
1020201000201212,
0022201000201212,
1022201000201212,
0022201000201212,
1022201000201212,
0022201000201212,
1022201000201212,
0022202011221122,
,
#BRANCHSTART p,-1,0.0001
#N
#BPMCHANGE 208
,
20202222,//N48
#GOGOSTART
1022201022201020,
1110201022201020,
1010112210111020,
1010201012221220,
1022201022201020,
1110201022201020,
1010112210111020,
1010201012221222,
#GOGOEND
0004,
500000000000000000000000000000000000000000000008,//N58
#E
#LEVELHOLD
#BPMCHANGE 208
,
,//E48
#GOGOSTART
500008000000100000100000500008000000100000000000,
100000500008000000500008000000100000500008000000,
000000500008000000100000500008000000500008000000,
100000000000500008000000500008000000500008000000,
100000500008000000000000500008000000500008000000,
100000500008000000100000000000100000500008000000,
100000500008000000100000000000500008000000500008,
05858011,//E56
#GOGOEND
000000100000100000500008000000000000500008000000,
100000500008000000100000000000100000500008000000,
#M
#BPMCHANGE 208
,
20202222,//M48
#GOGOSTART
1022201022201020,
1110201022201020,
1010112210111020,
1010201012221220,
1022201022201020,
1110201022201020,
1010112210111020,
1010201012221222,//M56
#GOGOEND
0004,
500000000000000000000000000000000000000000000008,//M58
#BRANCHSTART p,101,101
#N
,
,
#BPMCHANGE 220
,
22202020,
#E
100000100000000000500008000000100000500008000000,
000000500008000000100000500008000000500008000000,
#BPMCHANGE 220
100000000000500008000000500008000000100000500008,
000000500008000000000000500008000000100000000000,
#M
,
,
#BPMCHANGE 220
,
22202020,
#BRANCHSTART p,-1,-1
#N
#GOGOSTART
1022201022201020,
1110201022201020,
1110111011221020,
1011102012221222,
1022201022201020,
1110201022201020,
1110111011101110,
1011102012221222,//N70
#GOGOEND
0004,
500000000000000000000000000000000000000000000008,
,
#E
#GOGOSTART
100000100000100000000000500008000000500008000000,
100000500008000000100000000000100000500008000000,
000000500008000000500008000000100000500008000000,
500008000000000000100000500008000000100000500008,
000000100000000000500008000000500008000000500008,
000000500008000000000000100000100000000000100000,
100000500008000000000000100000100000500008000000,
500008000000000000500008000000500008000000100000,//E70
#GOGOEND
500008000000500008000000000000100000500008000000,
000000100000500008000000100000500008000000500008,
000000000000100000100000000000500008000000500008,
#M
#GOGOSTART
1022201022201020,
1110201022201020,
1110111011221020,
1011102012221222,
1022201022201020,
1110201022201020,
1110111011101110,
1011102012221222,//M70
#GOGOEND
0004,
500000000000000000000000000000000000000000000008,
,
#BRANCHSTART p,101,101
#N
,
,
,
#BPMCHANGE 240
,//N77
#GOGOSTART
2000200020002220,
#E
000000100000500008000000500008000000000000100000,
500008000000500008000000500008000000000000100000,
500008000000100000100000000000100000500008000000,
#BPMCHANGE 240
100000500008000000100000000000100000500008000000,//E77
#GOGOSTART
100000100000000000100000100000000000500008000000,
#M
,
,
,
#BPMCHANGE 240
,//M77
#GOGOSTART
2000200020002220,
#BRANCHSTART p,-1,-1
#N
1022201022201020,
1110201110201020,
1110111011101020,
12212211,
1022201022201022,
1110221110201020,
1110111011101020,
12212212,
1022201022201020,
1110201022201020,
1112111010201020,
1011101010222020,
1010202011102020,
1111202011112020,
1112201112201112,
200000100100100200200000100100100200100000000003,//N94
#BPMCHANGE 170
#BARLINEOFF
#GOGOEND
,
#BARLINEON
3,
,
#E
100000500008000000500008000000500008000000000000,
100000500008000000100000500008000000500008000000,
000000100000100000500008000000100000500008000000,
000000500008000000100000000000500008000000100000,
100000500008000000100000000000100000100000500008,
000000500008000000000000100000100000500008000000,
500008000000000000100000100000500008000000100000,
100000000000100000100000000000100000100000500008,
000000000000100000500008000000500008000000500008,
000000100000000000500008000000500008000000500008,
000000100000000000100000500008000000500008000000,
100000000000500008000000500008000000500008000000,
500008000000000000100000100000500008000000000000,
100000500008000000100000500008000000500008000000,
000000100000100000000000100000500008000000100000,
100000000000100000500008000000000000000000000000,//E94
#BPMCHANGE 170
#BARLINEOFF
#GOGOEND
,
#BARLINEON
100000100000500008000000100000100000000000100000,
100000000000100000100000100000500008000000000000,
#M
1022201022201020,
1110201110201020,
1110111011101020,
12212211,
1022201022201022,
1110221110201020,
1110111011101020,
12212212,
1022201022201020,
1110201022201020,
1112111010201020,
1011101010222020,
1010202011102020,
1111202011112020,
1112201112201112,
200000100100100200200000100100100200100000000003,//M94
#BPMCHANGE 170
#BARLINEOFF
#GOGOEND
,
#BARLINEON
3,
,
#BRANCHSTART p,101,101
#N
1210212012102120,
1210212012102000,
1211212012112120,
100200100100200000000000101010202020100100200200,
1012110112207000,
0000000000080000,
1012210112207000,
0000000000080000,
500000000000000000000000000000000000000008000000,
500000000000000000000000000000000000000008000000,
1222201222201020,
222200000000000000000000,
,
,
#E
500008000000100000500008000000100000500008000000,
000000500008000000500008000000500008000000000000,
100000500008000000100000500008000000500008000000,
000000500008000000500008000000100000500008000000,
100000000000500008000000100000100000500008000000,
000000100000100000500008000000000000500008000000,
100000000000100000100000000000100000500008000000,
100000500008000000000000100000100000500008000000,
000000100000500008000000100000100000000000100000,
100000100000000000500008000000500008000000100000,
500008000000500008000000000000500008000000100000,
500008000000100000100000000000100000100000100000,
000000500008000000100000100000100000500008000000,
000000500008000000100000000000000000000000000000,
#M
1210212012102120,
1210212012102000,
1211212012112120,
100200100100200000000000101010202020100100200200,
1012110112207000,
0000000000080000,
1012210112207000,
0000000000080000,
500000000000000000000000000000000000000008000000,
500000000000000000000000000000000000000008000000,
1222201222201020,
222200000000000000000000,
#END

COURSE:Hard
LEVEL:8
BALLOON:14,14,14,14,14,14
SCOREINIT:450
SCOREDIFF:90
#START
1011110112007000,
0008,
1022220222007000,
0008,
500000000000000000000000000000000000000008000000,
500000000000000000000000000000000000000008000000,
1022201022201000,
2220000000000000,
11,
12210211,
0020201000202200,
12210211,
0020201000201100,
12210211,
0020201000202200,
12210211,
0020202011201120,
#BPMCHANGE 192
,
2222,//19
#GOGOSTART
12212210,
11211210,
11221122,
1010201010201022,//23
#GOGOEND
,
3,
,
1222,//27
#GOGOSTART
12212212,
11211210,
1010222010102220,
11221010,
12212212,
11211210,
1010222010102220,
1010202010001022,//35
#GOGOEND
,
3,
#BPMCHANGE 170
12210211,
0020201000201100,
12210211,
0020201000201100,
12210211,
0020201000201100,
12210211,
0020202011201120,
,
#BPMCHANGE 208
,
20202222,//M48
#GOGOSTART
12212210,
12212210,
1020201022201020,
2010222010001000,
1020201022201000,
1020201022201000,
1020201022201020,
2010222010111000,//M56
#GOGOEND
0004,
500000000000000000000000000000000000000000000008,
,
,
#BPMCHANGE 220
,
22202020,//M62
#GOGOSTART
1010202011101000,
1010202011101000,
1011101011102020,
1010202022222000,
1010202011101000,
1010202011101000,
1011101011102220,
1010202022202222,//M70
#GOGOEND
0004,
500000000000000000000000000000000000000000000008,
,
,
,
,
#BPMCHANGE 240
,//M78
#GOGOSTART
20202022,
11112220,
11112220,
11221120,
11221120,
11221122,
12121120,
11221122,
12121120,
11211121,
11211121,
11211211,
21112220,
11221122,
11211121,
12212212,
200000100000200000200000100000100100100000000003,//M94
#BPMCHANGE 170
#BARLINEOFF
#GOGOEND
,
#BARLINEON
3,
,
1010212010102000,
1010212010102000,
1010212010102120,
1010200011111000,
1011110112007000,
0008,
1022220222007000,
0008,
500000000000000000000000000000000000000008000000,
500000000000000000000000000000000000000008000000,
1022201022201000,
2220000000000000,
,
,
#END

COURSE:Normal
LEVEL:6
BALLOON:10,10,10,10,10,10
SCOREINIT:640
SCOREDIFF:140
#START
11101070,
0008,
22202070,
0008,
500000000000000000000000000000000000000008000000,
500000000000000000000000000000000000000008000000,
1212,
4,
11,
10210220,
10210000,
10210220,
10210000,
10210220,
10210000,
10210220,
1133,
#BPMCHANGE 192
,
22,//19
#GOGOSTART
1111,
1110,
2222,
2222,//23
#GOGOEND
,
3,
,
22,//27
#GOGOSTART
1110,
11102000,
11102000,
11102000,
1110,
22202000,
22202000,
22202020,//35
#GOGOEND
,
3,
#BPMCHANGE 170
10210220,
10210000,
10210220,
10210000,
10210220,
10210000,
10210220,
1133,
,
#BPMCHANGE 208
,
22,//M48
#GOGOSTART
1111,
10111000,
1111,
10111000,
1111,
10222000,
1111,
10222020,//M56
#GOGOEND
0004,
500000000000000000000000000000000000000000000008,
,
,
#BPMCHANGE 220
,
2220,
#GOGOSTART
1111,
10111000,
1111,
10111000,
10101110,
10111000,
10101110,
10111010,//M70
#GOGOEND
0004,
500000000000000000000000000000000000000000000008,
,
,
,
,
#BPMCHANGE 240
,//M77
#GOGOSTART
2220,
1111,
10111000,
1111,
10111000,
1111,
10222000,
1111,
10222000,
1111,
11111000,
1111,
11111000,
2222,
22222000,
2222,
200000200000200000200000200000000000000000000003,//M94
#BPMCHANGE 170
#BARLINEOFF
#GOGOEND
,
#BARLINEON
3,
,
1212,
1212,
1212,
1110,
11101070,
0008,
22202070,
0008,
500000000000000000000000000000000000000008000000,
500000000000000000000000000000000000000008000000,
1212,
4,
,
,
#END

COURSE:Easy
LEVEL:4
SCOREINIT:410
SCOREDIFF:110
#START
1111,
,
2222,
,
500000000000000000000000000000000000000008000000,
500000000000000000000000000000000008000000000000,
11,
3,
11,
1102,
1102,
1102,
1102,
1102,
1102,
1102,
1133,
#BPMCHANGE 192
,
11,//19
#GOGOSTART
1110,
1110,
1110,
1111,//23
#GOGOEND
,
3,
,
22,//27
#GOGOSTART
1110,
2220,
1110,
2220,
1110,
2220,
1110,
2220,//35
#GOGOEND
,
3,
#BPMCHANGE 170
1102,
1102,
1102,
1102,
1102,
1102,
1102,
1133,
,
#BPMCHANGE 208
,
22,//M48
#GOGOSTART
1110,
1110,
1110,
1110,
2220,
2220,
2220,
2222,//M56
#GOGOEND
0004,
500000000000000000000000000000000000000000000008,
,
,
#BPMCHANGE 220
,
22,
#GOGOSTART
1110,
1110,
1110,
1110,
2220,
2220,
2220,
2222,//M70
#GOGOEND
0004,
500000000000000000000000000000000000000000000008,
,
,
,
,
#BPMCHANGE 240
,//M77
#GOGOSTART
22,
1110,
1110,
1110,
1110,
1110,
1110,
1110,
1110,
1110,
1110,
1111,
1110,
2222,
2220,
1111,
100000000000100000000000100000000000100000000003,//M94
#BPMCHANGE 170
#BARLINEOFF
#GOGOEND
,
#BARLINEON
3,
,
1021,
1021,
1021,
11,
1111,
,
2222,
,
500000000000000000000000000000000000000008000000,
500000000000000000000000000000000008000000000000,
11,
3,
,
,
#END
