//TJADB Project
TITLE:super star shooter
TITLEJA:super star shooter
SUBTITLE:--blue marble
SUBTITLEJA:blue marble
BPM:170
WAVE:super star shooter.ogg
OFFSET:-1.606
DEMOSTART:38.128

COURSE:Oni
LEVEL:8
BALLOON:13
SCOREINIT:470
SCOREDIFF:100
#START
1111,
#MEASURE 3/4
111,
#MEASURE 4/4
1011101110111011,
#MEASURE 3/4
101110111011,
#MEASURE 4/4
1011201120112011,
#MEASURE 3/4
201120112011,
202220100000,
100010221122,
#MEASURE 4/4
1000000000000002,
1,
1020201010221020,
1010201020102022,
1020201010221020,
12211215,
000000000000000008000000000000200200200000200000,
0010001000101011,
1020201010221020,
1020201010201022,
1020201010221040,
02140214,
1020201010221020,
12211221,
0010202010121020,
0010202010121020,
1011201120112011,
2011201120112011,
2211221122112120,
#GOGOSTART
00000012,
0010201020212010,
2011201020102011,
2010201020212010,
2011201020102010,
0010201020212010,
2011201020102050,
000000000000000000000000000000000008000000200000,
01212112,
0010201020212010,
2011201020102011,
2010201020212010,
01212122,
12121212,
12121212,
1022102010221020,
1022102210221070,
00000008,
#GOGOEND
0011101020102110,
2222201010212030,
0011202212102011,
2222201010121040,
0011201020300040,
0020102010212030,
0011201020300040,
0011201120112011,
2011201120112011,
2211221122112120,
#GOGOSTART
00000012,
0010201020212010,
2011201020102011,
2010201020212010,
2011201020102010,
0010201020212010,
2011201020102050,
000000000000000000000000000000000008000000200000,
01212112,
0010201020212010,
2011201020102011,
2010201020212010,
01212122,
1022102010221020,
1022102010221020,
1022102210221020,
1022102210221020,
1122102011221020,
1122102011221020,
1022112010221120,
1022112010221120,
2000102000221020,
000000100200000000222200,
444444,
0300,
#GOGOEND
#END

COURSE:Hard
LEVEL:7
BALLOON:12,15
SCOREINIT:480
SCOREDIFF:123
#START
1111,
#MEASURE 3/4
111,
#MEASURE 4/4
1011101010111010,
#MEASURE 3/4
101110101011,
#MEASURE 4/4
1011101110111011,
#MEASURE 3/4
101110111011,
102220200000,
334,
#MEASURE 4/4
3,
2,
12211212,
11212100,
12211212,
12211215,
000000000000000008000000000000200200200000200000,
0010001000100011,
12211212,
12211215,
000000000000000008000000000000200000100000200000,
02120212,
12211212,
12211212,
0010202010222020,
01221202,
1011101010111010,
1011101110111011,
1011101110111020,
#GOGOSTART
00000012,
0010202010222020,
11221122,
1010202010222020,
11221122,
0010202010222020,
11221125,
000000000000000000000000000000000008000000000000,
01212112,
0010202010222020,
11221122,
1010202010222020,
01021212,
10121012,
10121012,
12121212,
12121217,
00000008,
#GOGOEND
,
2222200000111030,
,
2222200000111040,
00000304,
0020002000222030,
0022202020300040,
0011101110111011,
1011101110111011,
1011101110111020,
#GOGOSTART
00000012,
0010202010222020,
11221122,
1010202010222020,
11221122,
0010202010222020,
11221125,
000000000000000000000000000000000008000000000000,
01212112,
0010202010222020,
11221122,
1010202010222020,
01121212,
1111,
1111,
11111010,
11101110,
10121012,
10121012,
12121212,
12121219,
,
8,
444444,
0300,
#GOGOEND
#END

COURSE:Normal
LEVEL:6
BALLOON:13,8,10
SCOREINIT:720
SCOREDIFF:205
#START
5,
#MEASURE 3/4
000000000000000000000008000000000000,
#MEASURE 4/4
7,
#MEASURE 3/4
008,
#MEASURE 4/4
1111,
#MEASURE 3/4
111,
11,
333,
#MEASURE 4/4
3,
2,
10101220,
11010000,
10101220,
10101125,
000000000000000008000000000000000000000000200000,
00010000,
10101220,
10101120,
000000000000000008000000000000000000000000100000,
00010111,
00010111,
01110001,
01102001,
01101202,
1111,
1111,
11101111,
#GOGOSTART
00000001,
00111001,
00111005,
000000000000000008000000000000000000000000000000,
01101012,
00222002,
00222005,
000000000000000000000000000008000000000000000000,
01101011,
00112001,
00112005,
000000000008000000000000000000000000000000000000,
01012020,
1111,
1111,
10111011,
10111117,
00000008,
#GOGOEND
,
22200112,
,
22200112,
00000304,
00000221,
00000304,
0111,
1111,
11101111,
#GOGOSTART
00000001,
00111001,
00111005,
000000000000000008000000000000000000000000000000,
01101012,
00222002,
00222005,
000000000000000000000000000000000008000000000000,
01101011,
00112001,
00112005,
000000000008000000000000000000000000000000000000,
01102020,
1111,
1111,
10111011,
10101110,
10111011,
10111011,
10111110,
10111119,
,
8,
444444,
0300,
#GOGOEND
#END

COURSE:Easy
LEVEL:4
BALLOON:11,11,6,8
SCOREINIT:790
SCOREDIFF:280
#START
5,
#MEASURE 3/4
000000000000000000000008000000000000,
#MEASURE 4/4
7,
#MEASURE 3/4
008,
#MEASURE 4/4
9,
#MEASURE 3/4
,
8,
333,
#MEASURE 4/4
3,
2,
1212,
11010000,
1212,
10201025,
000000000000000008000000000000000000000000200000,
00010000,
1212,
10201025,
000000000000000008000000000000000000000000100000,
00010001,
00000001,
00000001,
00101001,
00101005,
,
000000000000000000000000000000000008000000000000,
600000000000000000000000000000000000000008000000,
#GOGOSTART
00000001,
00101001,
00101005,
000000000000000008000000000000000000000000000000,
00000002,
00202002,
00202005,
000000000000000000000000000000000008000000000000,
00000001,
00102001,
00102005,
000000000000000008000000000000000000000000000000,
01001010,
11,
1110,
11,
10101017,
00000008,
#GOGOEND
,
20200004,
,
10100003,
00000404,
00000003,
00000404,
5,
000000000000000000000000000000000008000000000000,
600000000000000000000000000000000000000008000000,
#GOGOSTART
00000001,
00101001,
00101005,
000000000000000008000000000000000000000000000000,
00000002,
00202002,
00202005,
000000000000000000000000000000000008000000000000,
00000001,
00102001,
00102005,
000000000008000000000000000000000000000000000000,
01001010,
11,
1110,
11,
1110,
11,
1110,
11,
10101019,
,
8,
500000000000000000000000000000000000000008000000,
0300,
#GOGOEND
#END
