//TJADB Project
TITLE:Taberuna 2000
TITLEJA:タベルナ2000
SUBTITLE:--Linda AI-CUE
BPM:170
WAVE:Taberuna 2000.ogg
OFFSET:-1.504
DEMOSTART:1.504

COURSE:Oni
LEVEL:10
SCOREINIT:430
SCOREDIFF:108
#START
11211212,
0020002022222220,
1110102010201010,
21121121,
01211212,
1010200022222220,
1011111011111011,
1110100030303030,
#GOGOSTART
1022202010202011,
1022202010101011,
12121212,
3022222010102020,
3022202010202011,
1022202030003000,
4334,
30113333,
#GOGOEND
1011201010112010,
1011201011221122,
1011221010112210,
1011221030203020,
1011221010112010,
1011221011221122,
1011221010112010,
41413333,
#GOGOSTART
1111201111112011,
1111201111112011,
1111201111112011,
0030000030001110,//28
#GOGOEND
0011201111201110,
1010201021121120,
1121102011211020,
#BPMCHANGE 169.33
1121102011211121,
#BPMCHANGE 170
1101,
2222200010001000,
0000100022222000,
1101,
2222200010001000,
0000100022222000,
1101,
1011,
#BPMCHANGE 170.53
0110,
#GOGOSTART
#BPMCHANGE 170
10201120,
1011201020101120,
20102212,
1020112110102000,
10201121,
2010201011102010,
2022102020102010,
1012221210403040,//49
#GOGOEND
02100210,
1020102010221020,
1022122010221220,
1122112010401040,
1011201011201020,
1011200022122212,
1011221011221020,
2030203011221122,
1011112010111220,
1011222010122220,
1121101212102121,
2022122022222000,
1022221010222110,
1022111010211110,
1201122011122210,
1112222011112222,
12100210,
0020100010111010,
1122201012221010,
2221101011104040,
#GOGOSTART
1011210110112101,
1011210111201120,
1011210110112101,
#GOGOEND
200020002000200020002000200200200200202020202020,
#GOGOSTART
1020201122010121,
0011211221122112,
1111211111112111,
1111211111112111,
2222111122221111,
2211221122112211,
#GOGOEND
1022122212021222,
#BPMCHANGE 169.73
1202122212121212,
#BPMCHANGE 169.59
#SCROLL 1.01
1,
#BPMCHANGE 170.23
#SCROLL 1
,
#BPMCHANGE 169.72
,
#BPMCHANGE 170
30002224,
#END

COURSE:Hard
LEVEL:8
SCOREINIT:430
SCOREDIFF:108
#START
11211212,
0020002022202220,
1110102010201020,
01121122,
01211212,
1010200022202220,
1011101011101011,
11103333,
1022202010202000,
1022202010202000,
12121210,
1022202010202000,
1022202010202000,
1022202010111000,
12121210,
1022200030303030,
1011200010112000,
1011201010112000,
1011201010112000,
1011200010201020,
1011200010112000,
1011101110101000,
1011102220222000,
12123333,//24
#GOGOSTART
1110201110102000,
1110201110102011,
1010201110102011,
0030000030001110,
0011101011101000,
2020202022222000,
11221122,
#BPMCHANGE 171.03
1010200011201120,//32
#BPMCHANGE 170
#GOGOEND
2222200000000000,
2222200000000000,
0000000022222000,
,
2222200000000000,
0000000022222000,
1101,
1011,
#BPMCHANGE 168.98
0110,
#BPMCHANGE 170
10201120,
1011201020101120,
20102212,
1020112110102000,
10201120,
1011201020101120,
20102212,
1020112110304030,
02100210,
1020102010221000,
1020102010221000,
1110100010201020,
1011200010112000,
1011200011201120,
1011200010112000,
21213333,
1011101110101011,
1011101010111000,
2022202220202022,
2022202020222000,
1011202010201000,
1011202010201000,
11221122,
1010200011111111,
12100210,
0020100010112000,
1011201010112000,
1111101010004040,//69
#GOGOSTART
1011200110112001,
1011200010201020,
1011200110112000,
222222200400,
1020201120012012,
0011201020201000,
1110222011101000,
1010111110002020,
1020102010012021,
0022101022101000,
11221122,
#BPMCHANGE 170.98
1010200011111111,//81
#BPMCHANGE 169.02
#SCROLL 1.01
#GOGOEND
1,
#BPMCHANGE 170
#SCROLL 1
,
,
30002224,
,
,
#END

COURSE:Normal
LEVEL:7
BALLOON:13,70
SCOREINIT:620
SCOREDIFF:160
#START
11001212,
02000200,
11001212,
02000200,
11001212,
02000200,
11001100,
11002220,
11002220,
11102000,
12121210,
11,
11002220,
11101000,
12121210,
10002220,
11002220,
11101212,
12101210,
10001212,
10102220,
11101212,
12121210,
12102220,//24
#GOGOSTART
22100000,
10001212,
10121210,
11,
22202220,
100000000000100000000000500000000000000008000000,
11101110,
#BPMCHANGE 171.03
1010100011101110,//32
#BPMCHANGE 170
#GOGOEND
,
22200000,
00002220,
,
22200000,
00002220,
1101,
1011,
#BPMCHANGE 168.98
0110,
#BPMCHANGE 170
22001110,
22201010,
21212120,
10111000,
22001110,
22202121,
21212121,
21202222,
02100210,
12121210,
11001110,
11101212,
11001110,
11101212,
11001110,
12102222,
500000000000000000000000000000000008000000000000,
500000000000000000000000000000000008000000000000,
9,
0980,
1011100010000000,
1011100010000000,
11101110,
1010100011101110,
02100210,
02101000,
12121210,
12122000,//69
#GOGOSTART
11102220,
12121220,
12121220,
500000000000000000000000000000000000000008000000,
9,
,
,
,
9,
0800,
11101110,
#BPMCHANGE 170.98
1010100011101110,//81
#BPMCHANGE 169.02
#SCROLL 1.01
#GOGOEND
1,
#BPMCHANGE 170
#SCROLL 1
,
,
30002222,
,
,
#END

COURSE:Easy
LEVEL:5
SCOREINIT:520
SCOREDIFF:143
#START
11000000,
02000200,
11000000,
02000200,
11000000,
02000200,
11001100,
11001100,
11002000,
11002000,
11002020,
11,
11002000,
11002000,
11002020,
1130,
22001000,
22001000,
22001010,
1011,
11002000,
11002000,
11002020,
2240,//24
#GOGOSTART
11001100,
11001010,
11001100,
11001000,
11001100,
1110,
1111,
#BPMCHANGE 171.03
10101111,//32
#BPMCHANGE 170
#GOGOEND
,
2200,
0022,
,
2200,
0022,
1101,
1011,
#BPMCHANGE 168.98
0110,
#BPMCHANGE 170
11002000,
11002000,
11002020,
11002000,
11002000,
11002000,
11002020,
11103000,
01100110,
,
11002020,
11002000,
11002000,
11002020,
1111,
1130,
500000000000000000000000000000000008000000000000,
500000000000000000000000000000000008000000000000,
7,
08,
1111,
11101000,
1111,
10101111,
01100110,
01100000,
22001000,
22002000,//69
#GOGOSTART
11002200,
11002200,
1111,
500000000000000000000000000000000008000000000000,
9,
,
,
,
9,
0800,
1111,
#BPMCHANGE 170.98
10101111,//81
#BPMCHANGE 169.02
#SCROLL 1.01
#GOGOEND
1,
#BPMCHANGE 170
#SCROLL 1
,
,
3022,
,
,
#END
