//TJADB Project
TITLE:Cirno’s Perfect Math Class
TITLEJA:チルノのパーフェクトさんすう教室
SUBTITLE:--IOSYS [ARM & Yuuno Yoshimi] feat. miko/Touhou Project
SUBTITLEJA:東方Projectアレンジ ARM+夕野ヨシミ(IOSYS) feat.miko
BPM:175
WAVE:Cirnos Perfect Math Class.ogg
OFFSET:-1.704
DEMOSTART:23.646

COURSE:Edit
LEVEL:10
SCOREINIT:350
SCOREDIFF:80
#START
1010202000222010,
1010202000222010,
1022201010222010,
1022201000212000,
1010202000222010,
1010202000221111,
1022201010222010,
22220111,
30022211,
1022202220101010,
10022211,
1022202221112211,
13,
13,
111100400000111100400000,
1022202020304000,
#GOGOSTART
3011201101211211,
2111201102202010,
1011201101211211,
2111202202221022,
1011201101211211,
2111201102202010,
1011201101211211,
2121212120101010,
3011201101211211,
2111201102202010,
1011201101211211,
2111202202221022,
1011201101211211,
2111201102202010,
1102201102202010,
1010102200004000,
#GOGOEND
1022202010221220,
1022202010221220,
1011222010112220,
1022202210221110,
1022202010221220,
1022202010221220,
1111222211112222,
1212121122112121,
1022102211104011,
1022102110402211,
1022102110221122,
1022202210221110,
1122112212121122,
1212121210101000,
3022111030221110,
2211221121112110,
30220000,
30220222,
30220000,
3000202000221111,
12021202,
1111211110202020,
111100400000111100400000,
1111111110000000,
#GOGOSTART
3012111210112121,
1012111210112121,
1012111210112121,
1011222110003000,
3000002210102010,
0011202011222020,
2211211022112110,
30404111,
3012111210112121,
1012111210112121,
1012111210112121,
1011222110003000,
3000002210102010,
1111202011222020,
111100400200111100400200,
#GOGOEND
#BARLINEOFF
#MEASURE 1/4
#BPMCHANGE 43.79
,
#GOGOSTART
#BARLINEON
#MEASURE 4/4
#BPMCHANGE 175
3011201101211211,
2111201102202010,
1011201101211211,
2111202202221022,
1011201101211211,
2111201102202010,
1011201101211211,
2121212120101010,
3011211201211211,
2111201102202010,
1011211201211211,
2111202202221022,
1011211201211211,
2111201102202010,
1102201102202010,
1010102200004000,
#GOGOEND
#END

COURSE:Oni
LEVEL:8
BALLOON:10
SCOREINIT:410
SCOREDIFF:90
#START
11220221,
11220221,
1022201010222010,
1020201000222000,
11220221,
1010202000222010,
1022201010222010,
22220000,
3,
02222000,
,
0022202220000000,
33,
33,
1110400011104000,
00000440,
#GOGOSTART
3011101110201111,
1011101102202010,
1011101110201111,
1011101102202020,
1011101110201111,
1011101102202010,
1011101110201111,
500000000000000000000000000000000008000000000000,
3011201110201111,
1011201102202010,
1011201110201111,
1011201102202020,
1011201110201111,
1011201102202010,
2202201101102020,
1010101100004000,
#GOGOEND
1020102010222020,
1020102010222020,
12121122,
12121020,
1022202010201020,
1022202010201020,
11221122,
500000000000000000000000000000000008000000000000,
1022102010004000,
1022102010400020,
1022102210002020,
1022102210221110,
1111222211101110,
2222111120202000,
33,
600000000000000000000000000000000008000000000000,
3,
3,
3,
3000000000221110,
12020202,
1111101110101010,
3434,
78,
#GOGOSTART
3022102010211020,
1011102020111010,
1022102010211020,
1022112210003000,
3000002210102010,
0022101010211010,
1022202010222020,
30404111,
3022102010211020,
1011102020111010,
1022102010211020,
1022112210003000,
3000002210102010,
1022102010222020,
1110402011104020,
#GOGOEND
#BARLINEOFF
#MEASURE 1/4
#BPMCHANGE 43.79
,
#GOGOSTART
#BARLINEON
#MEASURE 4/4
#BPMCHANGE 175
3011101110201111,
1011101102202010,
1011101110201111,
1011101102202020,
1011101110201111,
1011101102202010,
1011101110201111,
500000000000000000000000000000000008000000000000,
3011201110201111,
1011201102202010,
1011201110201111,
1011201102202020,
1011201110201111,
1011201102202010,
2202201101102020,
1010101100004000,
#GOGOEND
#END

COURSE:Hard
LEVEL:7
BALLOON:18
SCOREINIT:560
SCOREDIFF:120
#START
10220221,
10220221,
10221022,
1010202000222000,
10220221,
10220221,
1022200010222000,
22220000,
3,
,
,
,
33,
33,
1110400011104000,
00000440,
#GOGOSTART
1000201000200011,
1000201000200011,
1000201000200011,
1000201002202020,
1000201000200011,
1000201000200011,
10210200,
500000000000000000000000000000000008000000000000,
1000201000200011,
1000201000200011,
1000201000200011,
1000201002202020,
1000201000200011,
10210200,
5,
000000000000000000000008000000000000400000000000,
#GOGOEND
12121020,
12121020,
12101210,
2220,
12121020,
12121020,
12101210,
500000000000000000000000000000000008000000000000,
12121040,
12121400,
12121010,
2220,
7,
08,
33,
600000000000000000000000000000000008000000000000,
3,
3,
3,
3,
12020202,
1111,
3434,
600000000000000000000008000000000000000000000000,
#GOGOSTART
3000100010102020,
1020202220101010,
10101122,
1022202220003000,
30022011,
0022201010222010,
1022202010222020,
1220,
30101122,
1020202220101010,
10101122,
1022202220003000,
30022211,
1022202010222020,
1110400011104000,
#GOGOEND
#BARLINEOFF
#MEASURE 1/4
#BPMCHANGE 43.79
,
#GOGOSTART
#BARLINEON
#MEASURE 4/4
#BPMCHANGE 175
1000201000200011,
1000201000200011,
1000201000200011,
1000201002202020,
1000201000200011,
1000201000200011,
10210200,
500000000000000000000000000000000008000000000000,
1000201000201111,
1000201002202010,
1000201000201111,
1000201002202020,
1000201000201111,
10210200,
5,
000000000000000000000008000000000000400000000000,
#GOGOEND
#END

COURSE:Normal
LEVEL:5
BALLOON:12
SCOREINIT:630
SCOREDIFF:190
#START
10100220,
10100220,
11,
20220000,
10100220,
10100220,
11,
20220000,
3,
,
,
,
33,
33,
0404,
3330,
#GOGOSTART
10110200,
10110200,
10110200,
,
10110200,
10110200,
10110200,
500000000000000000000008000000000000000000000000,
10220200,
10220200,
10220200,
,
10220200,
10220200,
5,
000000000000000000000008000000000000000000000000,
#GOGOEND
11101000,
11101000,
11101010,
2220,
11101000,
11101000,
11101110,
500000000000000000000008000000000000000000000000,
11101020,
11101200,
11101010,
2220,
7,
08,
33,
600000000000000000000000000008000000000000000000,
3,
3,
3,
3,
11,
1111,
3434,
600000000000000000000008000000000000000000000000,
#GOGOSTART
10101110,
1220,
10101110,
1223,
30022020,
01101010,
11101110,
2220,
10101110,
1220,
10101110,
1223,
30022020,
11101110,
3434,
#GOGOEND
#BARLINEOFF
#MEASURE 1/4
#BPMCHANGE 43.79
,
#GOGOSTART
#BARLINEON
#MEASURE 4/4
#BPMCHANGE 175
10220200,
10220200,
10220200,
,
10220200,
10220200,
10220200,
500000000000000000000008000000000000000000000000,
10210200,
10210200,
10210200,
,
10210200,
10210200,
5,
000000000000000000000008000000000000400000000000,
#GOGOEND
#END

COURSE:Easy
LEVEL:4
BALLOON:9
SCOREINIT:600
SCOREDIFF:223
#START
1100,
1100,
11,
2,
1100,
1100,
11,
500000000000000000000008000000000000000000000000,
3,
,
,
,
33,
33,
0404,
3330,
#GOGOSTART
10010000,
10010000,
10010000,
,
10010000,
10010000,
10010000,
500000000000000000000008000000000000000000000000,
20020000,
20020000,
20020000,
,
20020000,
20020000,
5,
000000000000000000000008000000000000000000000000,
#GOGOEND
1110,
1110,
22,
1,
1110,
1110,
22,
500000000000000000000008000000000000000000000000,
1110,
1110,
22,
1,
7,
08,
33,
600000000000000000000000000008000000000000000000,
3,
3,
3,
3,
11,
1111,
33,
600000000000000000000008000000000000000000000000,
#GOGOSTART
3011,
12,
1011,
1003,
3022,
0110,
1110,
1110,
3011,
12,
1011,
1003,
3022,
11,
3434,
#GOGOEND
#BARLINEOFF
#MEASURE 1/4
#BPMCHANGE 43.79
,
#GOGOSTART
#BARLINEON
#MEASURE 4/4
#BPMCHANGE 175
10020000,
10020000,
10020000,
,
10020000,
10020000,
10020000,
500000000000000000000008000000000000000000000000,
10020200,
10020200,
10020200,
,
10020200,
10020200,
5,
000000000000000000000008000000000000400000000000,
#GOGOEND
#END
