//TJADB Project
TITLE:Gensou no Satellite
TITLEJA:幻想のサテライト
SUBTITLE:--Butaotome/Touhou Project
SUBTITLEJA:東方Projectアレンジ 豚乙女
BPM:230
WAVE:Gensou no Satellite.ogg
OFFSET:-1.565
DEMOSTART:9.912 //shinuchi:
7170/4040/2470/1560 //AC15:
All charts terminate at #114 instead of #117

COURSE:Oni
LEVEL:9
BALLOON:
SCOREINIT:530,1620
SCOREDIFF:135
#START
3,
0,
3,
0001,
3,
0001,
3,
04, //8
#GOGOSTART
2011102011102000,
222111,
2011102011102000,
100000002000000020000000500000000008000000000000,
2011102011102000,
201210201210,
2011101210001000,
500000000000000000000000000000000000000008000000, //16
#GOGOEND
1,
0220,
3,
0,
0,
3022201020101010, //22
1212,
1110201120102000,
1212,
1110201022102000,
1212,
1110201120102000,
5,
000000000000000000000008000000000000000000000000, //30
1000201110102011,
1010201120102000,
1000201110102011,
1010201022102000,
1000201110102011,
1010201120102000,
3336,
000000000000000000000000000000000008000000000000, //38
#SCROLL 0.67
30012012,
10012012,
10012012,
1022201020102220,
10012012,
1022201022201000,
500000000000000000000000000000000000000008000000,
0, //46
#SCROLL 1
#GOGOSTART
2011102011102000,
222111,
2011102011102000,
100000002000000020000000500000000008000000000000,
2011102011102000,
201210201210,
2011102011102000,
200000002000000020000000500000000008000000000000, //54
2011102011102000,
222111,
2011102011102000,
100000002000000020000000500000000008000000000000,
2011102011102000,
201210201210,
2011101210003000,
600000000000000000000000000000000008000000000000, //62
#GOGOEND
3000201000221000,
2010201000222010,
2011102011102011,
1020111020002000,
1000201000221000,
2010201000222010,
2011202011202011,
2020112020002000, //70
2011102000101020,
2011102000101020,
2011102011102110,
2111102000201010,
2210201000201010,
2210201000201010,
2210202210202210,
2022102020004000, //78
#SCROLL 0.67
30012012,
1000222020101000,
10012012,
1000222020101000,
10012012,
1000222000002000,
500000000000000000000000000000000000000000000008,
0, //86
#SCROLL 1
#GOGOSTART
2011102011102000,
222111,
2011102011102000,
100000002000000020000000500000000008000000000000,
2011102011102000,
201210201210,
2011102011102000,
200000002000000020000000500000000008000000000000, //94
2011102011102000,
222111,
2011102011102000,
100000002000000020000000500000000008000000000000,
2011102011102000,
201210201210,
2011101210003000,
600000000000000000000000000000000008000000000000, //102
#GOGOEND
3,
0,
0,
0,
0,
0001,
#GOGOSTART
3022102022101022,
1020221020002000, //110
#GOGOEND
3,
0230,
0,
0,
0,
0,
0, //117
#END

COURSE:Hard
LEVEL:7
BALLOON:10
SCOREINIT:640,2620
SCOREDIFF:180
#START
3,
0,
3,
0003,
3,
0003,
3,
04, //8
#GOGOSTART
10210210,
222222,
10210210,
222200,
10210210,
222222,
10121010,
500000000000000000000000000000000000000008000000, //16
#GOGOEND
0,
0,
3,
0,
0,
0, //22
1212,
00211120,
1212,
00212100,
1212,
00211120,
5,
000000000000000000000008000000000000000000000000, //30
1212,
00211120,
1212,
00212100,
1212,
00211120,
3336,
000000000000000000000000000000000008000000000000, //38
#SCROLL 0.67
32,
10010020,
10010020,
1021,
1021,
10210210,
500000000000000000000000000000000000000008000000,
0, //46
#SCROLL 1
#GOGOSTART
12210210,
222222,
12210210,
222200,
12210210,
222222,
12210210,
500000000000000000000000000000000008000000000000, //54
12210210,
222222,
12210210,
222200,
12210210,
222222,
10121030,
600000000000000000000000000000000008000000000000, //62
#GOGOEND
30210020,
10210020,
10210010,
21002020,
10210020,
10210020,
10210210,
21021020, //70
12020000,
12020000,
500000000000000000000000000000000008000000000000,
500000000000000000000000000000000008000000000000,
12010120,
12010120,
10120120,
12012020, //78
#SCROLL 0.67
3021,
10222220,
1021,
10222220,
1021,
10220020,
500000000000000000000000000000000000000000000008,
0, //86
#SCROLL 1
#GOGOSTART
12210210,
222222,
12212210,
222200,
12210210,
222222,
12212210,
500000000000000000000000000000000008000000000000, //94
12212210,
222222,
12212210,
222200,
12212210,
222222,
10121030,
600000000000000000000000000000000008000000000000, //102
#GOGOEND
3,
0,
0,
0,
0,
0,
#GOGOSTART
22022022,
02202020, //110
#GOGOEND
7,
83,
0,
0,
0,
0,
0, //117
#END

COURSE:Normal
LEVEL:6
BALLOON:11
SCOREINIT:810,4700
SCOREDIFF:268
#START
3,
0,
3,
0003,
3,
0003,
3,
0, //8
#GOGOSTART
30010010,
22,
10010010,
22,
30010010,
22,
1110,
500000000000000000000000000000000000000008000000, //16
#GOGOEND
0,
0,
3,
0,
0,
0, //22
1111,
0220,
1111,
0220,
1111,
0220,
5,
000000000000000000000008000000000000000000000000, //30
1111,
0220,
1111,
0220,
1111,
0220,
3336,
000000000000000000000008000000000000000000000000, //38
31,
2001,
12,
2001,
12,
2,
500000000000000000000000000000000000000008000000,
0, //46
#GOGOSTART
30010010,
22,
10010010,
22,
30010010,
22,
10010010,
500000000000000000000000000008000000000000000000, //54
30010010,
22,
10010010,
22,
30010010,
22,
3330,
600000000000000000000000000008000000000000000000, //62
#GOGOEND
30010000,
20020000,
10010010,
01002020,
10010000,
20020000,
10010010,
01002020, //70
10020000,
10020000,
500000000000000000000000000008000000000000000000,
500000000000000000000000000008000000000000000000,
10020000,
10020000,
10020010,
02002020, //78
3002,
2021,
1002,
2021,
1002,
2021,
500000000000000000000000000000000000000000000008,
0, //86
#GOGOSTART
30110110,
22,
10110110,
22,
30110110,
22,
10110110,
500000000000000000000000000008000000000000000000, //94
30110110,
22,
30110110,
22,
30110110,
22,
3330,
600000000000000000000000000000000000000008000000, //102
#GOGOEND
0,
0,
0,
0,
0,
0,
#GOGOSTART
9,
0000090000008000, //110
#GOGOEND
0,
03,
0,
0,
0,
0,
0, //117
#END

COURSE:Easy
LEVEL:4
BALLOON:8
SCOREINIT:800,8940
SCOREDIFF:410
#START
3,
0,
3,
0003,
3,
0003,
3,
0, //8
#GOGOSTART
3,
11,
1,
22,
3,
11,
1,
500000000000000000000000000000000000000008000000, //16
#GOGOEND
0,
0,
3,
0,
0,
0, //22
11,
02,
11,
02,
11,
02,
5,
000000000000000000000008000000000000000000000000, //30
11,
02,
11,
02,
11,
02,
5,
000000000000000000000008000000000000000000000000, //38
3,
2,
22,
2,
1,
22,
500000000000000000000000000000000000000008000000,
0, //46
#GOGOSTART
3,
11,
1,
22,
3,
11,
1,
500000000000000000000000000008000000000000000000, //54
3,
11,
1,
22,
3,
11,
33,
600000000000000000000000000008000000000000000000, //62
#GOGOEND
3,
1,
22,
2,
1,
1,
22,
2, //70
1,
2,
500000000000000000000000000008000000000000000000,
500000000000000000000000000008000000000000000000,
11,
22,
5,
000000000000000000000008000000000000000000000000, //78
3,
2,
1,
2,
1,
2,
500000000000000000000000000000000000000000000008,
0, //86
#GOGOSTART
3,
11,
11,
22,
3,
11,
11,
500000000000000000000000000008000000000000000000, //94
3,
11,
11,
22,
3,
11,
33,
600000000000000000000000000000000000000008000000, //102
#GOGOEND
0,
0,
0,
0,
0,
0,
#GOGOSTART
9,
0000090000008000, //110
#GOGOEND
0,
03,
0,
0,
0,
0,
0, //117
#END
