//TJADB Project
TITLE:Taiko Time
TITLEJA:タイコタイム
SUBTITLE:--Nobuyoshi Sano
BPM:170
WAVE:Taiko Time.ogg
OFFSET:-1.607
DEMOSTART:23.408

COURSE:Edit
LEVEL:10
BALLOON:20,25,20,25,50
SCOREINIT:400
SCOREDIFF:95
#START
3003003004004003,
03000000,
#BARLINEOFF
#SCROLL 8
0700,
#SCROLL 1
0008,
#BARLINEON
3003003004004003,
03000000,
#BARLINEOFF
#SCROLL 0.52
7,
#SCROLL 1
0008,
#BARLINEON
3003003004004003,
03000000,
#BARLINEOFF
#SCROLL 8
0700,
#SCROLL 1
0008,
#BARLINEON
3003003004004003,
03000000,
#BARLINEOFF
#SCROLL 0.52
7,
#SCROLL 1
#BPMCHANGE 171.21
0008,//16
#BARLINEON
#BPMCHANGE 170
#GOGOSTART
1011201101112011,
0211101102111020,
1021102101211020,
1021102101211020,
1011201101112011,
0211101102111020,
1021102101211020,
1021102011212110,
1011201101211011,
0121102101211020,
1021102101221020,
1021102101221020,
1011201101211011,
0121102101211020,
1021102101221020,
1221221011212110,//32
#GOGOEND
1020112011112010,
1020120210211202,
1020112011112010,
1020120210211202,
1020112011212010,
1020120210221202,
1020112011212010,
1020120210221200,
1101201111012011,
1101201122022010,
1101201111012011,
1101201121012000,//44
1101201111012011,
1101201122022010,
1101201111022011,
1101201121012000,
1111201111012011,
1101201012221020,
1111201111012011,
1101201012222010,
1111201121012011,
2101201012221020,
1111201121012011,
2101201012222000,//56
#BPMCHANGE 168.5
100220000220000220000220,
#BPMCHANGE 170
000220000220000220000220,
100022000100100022000100,
100000002020000000100000100100200100200100100000,
100220100220100220100220,
100220100220100220100220,
100022000100100022000100,
#BPMCHANGE 171.53
100000002020000000100000100100200100200100100000,//64
#BPMCHANGE 170
1111201111212011,
1111201111212011,
1111201111212111,
1120112211212110,
1111201111212111,
2111201111212111,
2111201111212111,
1120112211212110,//72
#GOGOSTART
1011201101112011,
0121102101211020,
1021021021021120,
1021021012221020,
1011201101112011,
0121102101211020,
1012012012012210,
1112221112221020,
1011201102112011,
0121102101211020,
1021021021021120,
1021021012221020,
1011201102112011,
0121102101211011,
2211212211212211,
2122112122212221,//88
#GOGOEND
7,
#BARLINEOFF
,
#BPMCHANGE 175.45
8,
#SCROLL 6
000000000000000000000000300000000000030000003000,
#END

COURSE:Oni
LEVEL:9
BALLOON:35,35,35
SCOREINIT:390
SCOREDIFF:90
#START
3003003004004004,
04000000,
,
,
3003003004004004,
04000000,
,
,
3003004003003004,
04000000,
,
,
3003004003003004,
04000000,
,
#BPMCHANGE 171.21
,
#BRANCHSTART p,80,98.5
#N
#SECTION
#GOGOSTART
#BPMCHANGE 170
1001201011102011,
0110201101102000,
1022201101102011,
1022201101102000,
1001201011102011,
0110201101102000,
1022201101102011,
1022201101102000,
1001201011202011,
0110201101102000,
1022201020102220,
1022201020102220,
1001201011202011,
0110201101102000,
1022201020102220,
1022201020102220,
#E
#SECTION
#GOGOSTART
#BPMCHANGE 170
1001201011102011,
0210201102102010,
1022201102102012,
1022201102102000,
1001201011102011,
0210201102102010,
1022201102102012,
1022201102102000,
1001201011202011,
0210201102102010,
1012201020102210,
1012201020102210,
1001201011202011,
0210201102102010,
1012201020102210,
1012201022102210,
#M
#GOGOSTART
#SECTION
#BPMCHANGE 170
1001201110212011,
0210201102102011,
1021201102102011,
1021201102102011,
1001201110212011,
0210201102102011,
1021201102102011,
1021201102102011,
1001201011212011,
0210201102102011,
1011201102102211,
1011201102102211,
1001201011212011,
0210201102102011,
1011201102102211,
1011201122112210,
#BRANCHSTART p,80,90
#N
#SECTION
#GOGOEND
1020120010201200,
1020120110201000,
1020120010201200,
1020120110202000,
1020120110201020,
1020120110201000,
1020120110201020,
1020120110202000,
#E
#SECTION
#GOGOEND
1020120110211020,
1020120110221000,
1020120110211020,
1020120110222000,
1020120110211020,
1020120110221010,
1020120110211020,
1020120110222000,//40
#M
#SECTION
#GOGOEND
1020120210211020,
1020120210221020,
1020120210211020,
1020120210222200,
1020120210211020,
1020120210221020,
1020120210211020,
1020120210222200,//40
#BRANCHSTART p,80,90
#N
#SECTION
1001201110012010,
1001201110112000,
1001201110012010,
1001201010212000,
1001201120012010,
1001201110112000,//46
1001201110012010,
1001201030004000,
1002102010021020,
1002102010222000,
1002102010021020,
1002102010212000,
1002102010021020,
1002102010222000,
1002102010021020,
1002102030004000,
#BPMCHANGE 168.5
12020202,
#BPMCHANGE 170
02020202,
3004000030040000,
3004000030111030,
1022102010221020,
1022102010221020,
3004000030040000,
3004000040111040,
#E
#SECTION
1001201120012010,
1001201111012000,
1001201120012010,
1001201111021000,
1001201120012010,
1001201111012000,//46
1001201120012010,
1001201030004000,
1002102210021020,
1002102211011000,
1002102210021020,
1002102211012000,
1002102210021020,
1002102211011000,
1002102210021020,
1002102030004000,
#BPMCHANGE 168.5
12020202,
#BPMCHANGE 170
02020202,
3004000030040000,
3004000030111030,
1022102010221020,
1022102010221020,
3004000030040000,
3004000040222040,
#M
#SECTION
1001201120012010,
1001201112021000,
1001201120012010,
1001201121012000,
1001201120012011,
1001201112021000,//46
1001201120012011,
1001201030004000,
1002102210021020,
1002102112021000,
1002102210021020,
1002102221012000,
1002102210021022,
1002102112021000,
1002102210021022,
1002102030004000,
#BPMCHANGE 168.5
1020002220200022,
#BPMCHANGE 170
2220002022200020,
3004000030040000,
3004000030212030,
1022102210221022,
1022102210221220,
3004000030040000,
3004000040121040,
#BRANCHSTART p,80,90
#N
#SECTION
1110102011101020,
1120112010221020,
1110102011101020,
2210221020112010,
1110102011101020,
1120112010221020,
1110102011101020,
2210221020112010,
#E
#SECTION
1110102011101020,
1120112010112210,
1110102011101020,
1220122010112210,
1110102011101020,
1120112010112210,
1110102011101020,
1220122010112210,
#M
#SECTION
1110112011121120,
1110112011221122,
1110112011121120,
1110112011221122,
1110122011121120,
1110122011221122,
1110122011121120,
1110122011221122,
#BRANCHSTART p,80,90
#N
#SECTION
#GOGOSTART
1001201011102011,
0110201101102000,
1002201011022010,
1102201011022000,
1001201011102011,
0110201101102000,
1002201011022010,
1102201102201020,
1001201011202011,
0110201101102000,
1002201011022010,
1102201011022000,
1001201011202011,
0110201101102000,
30430430,
43043030,
#E
#SECTION
#GOGOSTART
1001201011102011,
0210201102102000,
1002201111022010,
1102201111022000,
1001201011102011,
0210201102102000,
1002201111022010,
1201201201201120,
1001201011202011,
0210201102102000,
1002201111022010,
1102201111022000,
1001201011202011,
0210201102102000,
30430340,
43034030,
#M
#SECTION
#GOGOSTART
1001201110212011,
0210201102102011,
1002102111021010,
1102102111021020,
1001201110212011,
0210201102102011,
1002102111021020,
1122201122201120,
1001201011212011,
0210201102102211,
1002102111021020,
1102102111021020,
1001201011212011,
0210201102102010,
34434434,
43443434,
#BRANCHEND
#GOGOEND
7,
,
#BPMCHANGE 175.45
8,
000000000000000000000000300000000000030000003000,
#END

COURSE:Hard
LEVEL:7
BALLOON:8,15,8,15,8,15,8,15,8,15,8,15
SCOREINIT:480
SCOREDIFF:110
#START
3003003003003003,
03000000,
,
,
3003003003003003,
03000000,
,
,
3003003003003003,
03000000,
,
,
3003003003003003,
03000000,
,
#BPMCHANGE 171.21
,
#GOGOSTART
#BPMCHANGE 170
1001201000102010,
01201020,
1002201000202000,
7008,
1001201000102010,
01201020,
7,
0008,
1001201000102010,
01201020,
1002201000202000,
7008,
1001201000102010,
01201020,
7,
0008,
#GOGOEND
1020111010201020,
1020111010201000,
1020111010201020,
1020111010202000,
1020111010201020,
1020111010201000,
1020111010201020,
1020111010202000,//40
1001101010011010,
1001101010002000,
1001101010011010,
1001101010222000,
1001101010011010,
1001101010002000,//46
1001101010011010,
1001101030004000,
1002201010022010,
1002201010002000,
1002201010022010,
1002201010222000,
1002201010022010,
1002201010002000,
1002201010022010,
1002201030004000,
#BPMCHANGE 168.5
,
#BPMCHANGE 170
,
3004000030040000,
3004000030003000,
,
,
3004000030040000,
3004000040004000,
1011102010111020,
1011102010111000,
2022202020222022,
2022202020222000,
1011102010111020,
1011102010111000,
2022202020222022,
2022202020222000,
#GOGOSTART
1001201000102010,
01201020,
1002201010022010,
1002201010222000,
1001201000102010,
01201020,
1002201010022010,
1110222011102000,
1001201000201020,
01201020,
1002201020022010,
2002201020222000,
1001201000201020,
01201020,
30330440,
33043030,
#GOGOEND
6,
,
#BPMCHANGE 175.45
8,
000000000000000000000000300000000000030000003000,
,
,
,
#END

COURSE:Normal
LEVEL:6
BALLOON:9,9,30,5,5,5
SCOREINIT:700
SCOREDIFF:203
#START
3003003003003003,
03000000,
,
,
3003003003003003,
03000000,
,
,
3003003003003003,
03000000,
,
,
3003003003003003,
03000000,
,
#BPMCHANGE 171.21
,//16
#GOGOSTART
#BPMCHANGE 170
10101110,
1101,
1103,
68,
10101110,
1101,
7,
8,
10101110,
1202,
1204,
68,
10101110,
1202,
7,
8,//32
#GOGOEND
1212,
1211,
1212,
1210,
1212,
1211,
1212,
1210,//40
10011001,
10001110,
10011001,
10002220,
10011001,
10001110,//46
10011001,
1033,
10211021,
10001110,
10211021,
10002220,
10211021,
10001110,
10211021,
1044,
#BPMCHANGE 168.5
,
#BPMCHANGE 170
,
33,
3033,
,
,
33,
3044,//64
9,
,
09,
8,
1112,
1112,
1212,
58,//72
#GOGOSTART
10101110,
1101,
1212,
70000800,
10101110,
1101,
2121,
70000800,
10101110,
1101,
1212,
70000800,
10101110,
1100,
30030030,
03003030,
#GOGOEND
6,
,
#BPMCHANGE 175.45
8,
000000000000000000000000300000000000030000003000,
,
,
,
#END

COURSE:Easy
LEVEL:5
BALLOON:8,8,25,4,4,4
SCOREINIT:440
SCOREDIFF:100
#START
3003003003003003,
03000000,
,
,
3003003003003003,
03000000,
,
,
3003003003003003,
03000000,
,
,
3003003003003003,
03000000,
,
#BPMCHANGE 171.21
,//16
#GOGOSTART
#BPMCHANGE 170
1111,
1101,
1103,
68,
1111,
1101,
7,
8,
1111,
1202,
1204,
68,
1111,
1202,
7,
8,//32
#GOGOEND
1212,
11,
1212,
1,
1212,
11,
1212,
1,//40
11,
10001110,
11,
10002220,
11,
10001110,//46
11,
1033,
1212,
10001110,
1212,
10002220,
1212,
10001110,
1212,
1044,
#BPMCHANGE 168.5
,
#BPMCHANGE 170
,
33,
3033,
,
,
33,
3033,//64
9,
,
09,
8,
1112,
1112,
1112,
58,//72
#GOGOSTART
1111,
1101,
1101,
78,
1111,
1202,
1202,
78,
1111,
1101,
1101,
78,
1111,
12,
30030030,
03003030,
#GOGOEND
6,
,
#BPMCHANGE 175.45
8,
000000000000000000000000300000000000030000003000,
,
,
,
#END
