//TJADB Project
TITLE:Tokyo Tokkyo-kyo Kyokakyoku Kyokuchou‼
TITLEJA:東京特許キョ許可局局長!!
SUBTITLE:--MOES feat. Kaiho Erika
BPM:165
WAVE:Tokyo Tokkyo-kyo Kyokakyoku Kyokuchou!!.ogg
OFFSET:-1.879
DEMOSTART:80.416

COURSE:Oni
LEVEL:8
BALLOON:20
SCOREINIT:310
SCOREDIFF:80
#START
1000200020120120,
1000200020120120,
1000200020120120,
100000000000200000000000500000000000000008000000,
1000100010012210,
1022101020002000,
1000100110112020,
1022101020222020,
1000100010012210,
1022101020002000,
1000100110012210,
3030000000222020,
1020202022020121,
1002002020202121,
1022200020020121,
1002002020202100,
2020102022021020,
2202102020001000,
2020102020021020,
2002102020101000,
1022201000221020,
1021101000221020,
1022201000221020,
1011201000221020,
1022201000221120,
1021101000112210,
1022201000221120,
1021101000201000,
1110111011104000,//29
#GOGOSTART
1020112011210120,
1020112011210120,
1020112110211020,
100000200000100100200000500000000000000008000000,
3000300030030030,
33332220,
3000300030030030,
3030303000222020,//37
#GOGOEND
1022200022200020,
2202002020003000,
2220202022202020,
2002002020202000,
12012212,
122122100000,
2002002222222222,
102112100200,
1020102101221022,
1022102101222022,
1020102101221022,
1022102101222022,
1020102101221022,
1022102101222022,
1020102101221022,
100000200000200100100200200020002000200020002000,
1110111011104000,//54
#GOGOSTART
1020112011210120,
1020112011210120,
1020112110211020,
100000200000100100200000500000000000000008000000,
3000300030030030,
3030303020222000,
33333303,
300000600000000000000000000000000008000000000000,//62
#GOGOEND
1021202010201021,
2210201010202220,
1001022010201021,
2212021010202000,
1001001210212010,
1201021010122010,
1021221010212210,
1201221210212010,
2000200020222020,//71
#GOGOSTART
1020112011210120,
1020112011210120,
1020112110211020,
100000200000100100200000500000000000000008000000,
3000300030030030,
3030303022022000,
3000300030030030,
300000600000000000000000000000000008000000000000,//79
#GOGOEND
1001200210212010,
1020201010211020,
1001200210201020,
12211212,
1001200210122010,
2020202010011010,
2212202010102020,
200020002000200020002000200000100100200000000000,//87
#GOGOSTART
1220122012221020,
1220122012221020,
1220122012221020,
1220122012221020,
1120112011221020,
1120112011221020,
1120112011221020,
1120112011221222,//95
#GOGOEND
7,
800000000111,
#SCROLL 1.12
#BPMCHANGE 150
22230000,
#END

COURSE:Hard
LEVEL:6
BALLOON:15
SCOREINIT:350
SCOREDIFF:83
#START
2000200020020020,
2000200020020020,
2000200020020020,
2000200022202220,
1000100010010010,
11112220,
1000100110222010,
11112020,
1000100010010010,
11112220,
1000100110010010,
1010000000222020,
0010101011010010,
1001001010202020,
0011100010010010,
1001001010101000,
2010101010010010,
1001001010202000,
2010101010010010,
1001001010202020,
1022201000202020,
1022201000101010,
1022201000102020,
1022201000201010,
1022201000101020,
1022201000202010,
1022201000201020,
1022201000002000,
3334,//29
#GOGOSTART
1000200010022020,
12223040,
1000200110200020,
1020202011101000,
3000300030030030,
300000300000300000300000600000000000000008000000,
3000300030030030,
33330000,//37
#GOGOEND
2222,
2223,
2222,
2222,
12012220,
111100200000,
1000001110002000,
101111100000,
1011101000111010,
2002002000222020,
1011101000111010,
2002002000222020,
1010101110111010,
2020202220222020,
1010101110111010,
200200200200202020202020,
1000100010012000,//54
#GOGOSTART
1000200010022020,
1020202010222000,
1000200110222020,
12211020,
3000300030030030,
300000300000300000300000600000000000000008000000,
30303303,
300000600000000000000000000000000008000000000000,//62
#GOGOEND
22221212,
1110101020102010,
2002022020202020,
1101011010101000,
2002002220202020,
1101011010101010,
2220222020222020,
1101110110101000,
2000200020222020,//71
#GOGOSTART
12121212,
1020102022202220,
12121212,
1020102022202220,
3000300030030030,
300000300000300000300000600000000000000008000000,
3000300030030030,
4444,//79
#GOGOEND
1000102220111010,
2020202010111000,
1000102220111010,
2020202010111000,
1000102220111010,
2020202010111000,
1110101020202020,
500000000000000000000000000000000008000000000000,//87
#GOGOSTART
1020102010022020,
1020102011102220,
1020102010022020,
12122020,
1020102010022020,
1020102011102220,
1020100110200020,
12120000,//95
#GOGOEND
7,
800000000111,
#SCROLL 1.1
#BPMCHANGE 155
22230000,
,
#END

COURSE:Normal
LEVEL:4
BALLOON:5,5,5,5,5,5,5,5,5,5,5,5,5,5,12
SCOREINIT:560
SCOREDIFF:120
#START
2220,
2220,
2220,
2220,
1110,
10110000,
1110,
20220000,
1110,
10110000,
1110,
44000000,
1001,
1001,
1001,
1001,
0202,
00200220,
0202,
10010020,
10010010,
70000800,
10010010,
70000800,
10010010,
70000800,
10010020,
70000800,
3334,//29
#GOGOSTART
1110,
10110000,
1110,
10110000,
3330,
70000800,
3330,
70000800,//37
#GOGOEND
2222,
2221,
2222,
2222,
1222,
1112,
1212,
1,
10010010,
70000800,
10010010,
70000800,
10010010,
70000800,
10010020,
70000800,
3334,//54
#GOGOSTART
1110,
10110020,
1110,
10110020,
3330,
70000800,
3330,
70000800,//62
#GOGOEND
10011110,
1111,
10011110,
2222,
10011020,
10011020,
10011020,
10011020,
500000000000000000000000000000000008000000000000,//71
#GOGOSTART
1112,
10110000,
1112,
10110000,
3000300030030030,
70000800,
3000300030030030,
70000800,//79
#GOGOEND
1212,
1022,
1212,
1022,
1212,
1022,
1212,
500000000000000000000008000000000000200000000000,//87
#GOGOSTART
1112,
10112020,
1112,
10112020,
1112,
10112020,
1112,
10110000,//95
#GOGOEND
7,
00080000,
#SCROLL 1.1
#BPMCHANGE 155
00030000,
,
#END

COURSE:Easy
LEVEL:3
BALLOON:3,3,3,3,3,3,3,3
SCOREINIT:510
SCOREDIFF:125
#START
#SCROLL 0.8
1,
1,
1,
1,
1110,
1,
1110,
1,
1110,
1,
1110,
2,
1,
1,
1,
1,
0101,
0101,
0101,
0101,
1001,
500000000000000000000000000000000008000000000000,
1001,
500000000000000000000000000000000008000000000000,
1001,
1,
1001,
1001,
3,//29
#GOGOSTART
1110,
1100,
1110,
1100,
3330,
600000000000000000000008000000000000000000000000,
3330,
600000000000000000000008000000000000000000000000,//37
#GOGOEND
1,
11,
1,
11,
22,
2220,
22,
12,
1001,
78,
1001,
78,
1001,
78,
1001,
78,
1110,//54
#GOGOSTART
1110,
1100,
1110,
1100,
3330,
600000000000000000000008000000000000000000000000,
3330,
600000000000000000000008000000000000000000000000,//62
#GOGOEND
1022,
2220,
1022,
2220,
78,
78,
78,
78,
2220,//71
#GOGOSTART
1111,
1111,
1111,
1100,
3330,
600000000000000000000008000000000000000000000000,
3330,
3,//79
#GOGOEND
12,
1100,
12,
1100,
12,
1100,
12,
600000000000000000000008000000000000000000000000,//87
#GOGOSTART
1111,
1111,
1111,
1100,
2222,
2222,
2222,
2200,//95
#GOGOEND
6,
000000000000000000000000000000000000008000000000,
#SCROLL 0.9
#BPMCHANGE 155
00030000,
,
#END
