//TJADB Project
TITLE:Sayonara Varya
TITLEJA:さよならワーリャ
SUBTITLE:--Mirai Kodai Gakudan feat. Haruka Shimotsuki
SUBTITLEJA:未来古代楽団 feat.霜月はるか
BPM:120
WAVE:Sayonara Varya.ogg
OFFSET:-2.204
DEMOSTART:58.044 //shinuchi:
7300/5170/2630/1760/1270

COURSE:Edit
LEVEL:10
BALLOON:
SCOREINIT:450,1310
SCOREDIFF:118
#START
2020200200202002,
0000220200201010,
2020200200202002,
000000101010200000000000100000202020200200100200, //4
#BPMCHANGE 240
#GOGOSTART
0000111020102020,
1020111020111020,
1020111020101020,
1022201020212030, //8
0000111020102020,
1020111040001040,
0020111020102020,
1020111020101020,
10010021,
500000000000000000000008000000000000000000000000, //14
#GOGOEND
#MEASURE 3/4
#BPMCHANGE 120
100101202020,
100101202220,
100101202020,
100101202221, //18
100101202020,
100101202220,
100101202122,
100000000100000100202010202010202010, //22
101102122020,
102102122122,
101102122020,
100000200100000200100200200100202020, //26
101102122020,
102102102220,
101102122122,
111111122200000000, //30
#MEASURE 4/4
#BPMCHANGE 240
10110212,
2020222020202020,
1000201000201220,
2020222020002020, //34
1020201020201220,
200000100200200000200000200010001000100010001000,
2000111020001000,
200000000000100100100000200000001000000010000000, //38
2010201120102010,
200000100000200000100100200000002000100010001000,
2010212020102120,
200010001000200010001000200200200200100000000000,
444044,
400000101010200100100400, //44
#GOGOSTART
0000111020101120,
1010111020102120,
0020111020102220,
0020111120101040, //48
0000111020101120,
1020111020102120,
0020111020112010,
2222111120101040, //52
0000111020101120,
1010111020101120,
0020111020112010,
2021201021111040, //56
0000111020101120,
1022111040001040,
0020111020112010,
200010001000200000100000200100100100200000200000,
100200200100202020101010,
500000000000000000000008000000000000000000000000, //62
#GOGOEND
#MEASURE 3/4
#BPMCHANGE 120
102220102021,
112221210121,
102220112020,
102220211121, //66
112221112121,
112220210121,
100000200200200100101010201010201010,
222222222200000000,
#BARLINEOFF
#BPMCHANGE 240
101010111110, //71
#BARLINEON
#MEASURE 4/4
#GOGOSTART
40140140,
1020101022111120,
30230230,
2211111020201000, //75
21121120,
1111222211111120,
1022221022221022,
2222222212101010, //79
201010101210101010201010,
101010201010200100200200,
102020202120202020102020,
101010202020100200200100, //83
2111112111112111,
2211221122221110,
40140140,
#GOGOEND
#BPMCHANGE 60
#SCROLL 4
0,
#BARLINEOFF
0, //88
#END

COURSE:Oni
LEVEL:9
BALLOON:6,6,6,6
SCOREINIT:600,1830
SCOREDIFF:155
#START
1111,
1111,
1111,
100000000000200000000000100000202020200200100100, //4
#BPMCHANGE 240
#SCROLL 0.75
#GOGOSTART
00102021,
22102021,
02012021,
22012221, //8
00102021,
22012021,
02012021,
02012002,
20010022,
1, //14
#GOGOEND
#MEASURE 3/4
#BPMCHANGE 120
#SCROLL 1
102202202010,
102202202210,
102202202010,
102202202222, //18
102202202010,
102202202210,
102202202212,
100000200200000200102020100000102020, //22
101101202010,
101101202210,
101101202010,
100000100100000100200000200000202020, //26
101101222010,
101101201210,
202202112212,
122100122100000000, //30
#MEASURE 4/4
#BPMCHANGE 240
#SCROLL 0.75
10210210,
02202020,
10210210,
0022200020002000, //34
10210210,
200100000000101020202020,
1212,
1212, //38
11221122,
100200100200100000101010,
12221222,
101010202020100200100000,
444044,
300000202020200200200100, //44
#GOGOSTART
00102021,
22102021,
02012021,
0020102220202010, //48
00102021,
22102021,
02012020,
2222202020201010, //52
00102021,
22102021,
02012021,
2020102022222010, //56
00102021,
22102021,
02012021,
202020200100200100200200,
100200200200102020102020,
1, //62
#GOGOEND
#MEASURE 3/4
#BPMCHANGE 120
#SCROLL 1
102220002010,
102220700080,
102220002010,
102220700080, //66
102220002010,
102220700080,
102220002010,
708100,
#BARLINEOFF
#BPMCHANGE 240
#SCROLL 0.75
202020222020, //71
#BARLINEON
#MEASURE 4/4
#GOGOSTART
10210210,
0020201022201110,
10120210,
2220201020202000, //75
10210210,
0000222020201000,
1000111000222000,
2220202020101000, //79
122122122100,
000000102020100200200200,
111222111200,
101020101020100200200200, //83
1110102220201000,
0000111022202020,
30030030,
#GOGOEND
#BARLINEOFF
#BPMCHANGE 60
#SCROLL 3
0,
#BARLINEON
0, //88
#END

COURSE:Hard
LEVEL:7
BALLOON:24,4,4,4,4
SCOREINIT:700,2860
SCOREDIFF:190
#START
1111,
1111,
1111,
1000200010202001,//4
#BPMCHANGE 240
#SCROLL 0.5
#GOGOSTART
00102011,
#BARLINEOFF
01102001,
#BARLINEON
00102011,
#BARLINEOFF
01102001,
#BARLINEON
00102011,
#BARLINEOFF
01102001,
#BARLINEON
00102011,
#BARLINEOFF
01102001,
#BARLINEON
10010011,
#BARLINEOFF
1, //14
#GOGOEND
#BARLINEON
#BPMCHANGE 120
#MEASURE 3/4
#SCROLL 1
102202202020,
102202200000,
102202202020,
102202202220,
102202202020,
102202200000,
102202202020,
202202200000, //22
101101102000,
101101102220,
101101102000,
101101102020,
101101111000,
202202222000,
101101102020,
500000000000000008000000000000000000, //30
#BPMCHANGE 240
#MEASURE 4/4
#SCROLL 0.5
10010010,
#BARLINEOFF
02202020,
#BARLINEON
10010010,
#BARLINEOFF
02202020,
#BARLINEON
10010010,
#BARLINEOFF
01001000,
#BARLINEON
11,
#BARLINEOFF
11, //38
#BARLINEON
1111,
#BARLINEOFF
1111,
#BARLINEON
1212,
#BARLINEOFF
1122,
#BARLINEON
222022,
#BARLINEOFF
20000001, //44
#BARLINEON
#GOGOSTART
00102011,
#BARLINEOFF
01102001,
#BARLINEON
00102011,
#BARLINEOFF
01102001,
#BARLINEON
00102011,
#BARLINEOFF
01102001,
#BARLINEON
00102011,
#BARLINEOFF
02201001, //52
#BARLINEON
00102011,
#BARLINEOFF
01102001,
#BARLINEON
00102011,
#BARLINEOFF
01102001,
#BARLINEON
00102011,
#BARLINEOFF
01102009,
#BARLINEON
0,
#BARLINEOFF
0,
#BARLINEON
000000000009000000000000000000000000000000000000,
#BARLINEOFF
080000000000000000000000000000000000000000000000, //62
#GOGOEND
#BARLINEON
#MEASURE 3/4
#BPMCHANGE 120
#SCROLL 1
002220002020,
002220700080,
002220002020,
002220700080,
002220002020,
002220700080,
002220002020,
708100,
#BARLINEOFF
#BPMCHANGE 240
#SCROLL 0.5
0, //71
#BARLINEON
#MEASURE 4/4
#GOGOSTART
30030030,
#BARLINEOFF
02202020,
#BARLINEON
30030030,
#BARLINEOFF
22201110,
#BARLINEON
30030030,
#BARLINEOFF
00202220,
#BARLINEON
30030030,
#BARLINEOFF
22201110, //79
#BARLINEON
10111010,
#BARLINEOFF
20202220,
#BARLINEON
10111010,
#BARLINEOFF
22202220,
#BARLINEON
30030030,
#BARLINEOFF
00111110,
#BARLINEON
30030030,
#GOGOEND
#BARLINEOFF
#BPMCHANGE 60
#SCROLL 1
0,
#BARLINEON
0, //88
#END

COURSE:Normal
LEVEL:5
BALLOON:10,16,3,3,3,3
SCOREINIT:1000,5600
SCOREDIFF:325
#START
1111,
500000000000000000000000000008000000000000000000,
1111,
500000000000000000000000000008000000000000000100, //4
#BPMCHANGE 240
#SCROLL 0.5
#GOGOSTART
00101001,
#BARLINEOFF
00101002,
#BARLINEON
02,
#BARLINEOFF
500000000000000000000000000000000008000000000000,
#BARLINEON
0110,
#BARLINEOFF
10002005,
#BARLINEON
0,
#BARLINEOFF
0,
#BARLINEON
000000000000000000000000000000000000000000000008,
#BARLINEOFF
0, //14
#GOGOEND
#BARLINEON
#BPMCHANGE 120
#MEASURE 3/4
#SCROLL 1
000222,
22,
22,
200222,
200222,
22,
7,
8, //22
1110,
1110,
1110,
200220,
1110,
1110,
1110,
500000000000000008000000000000000000, //30
#BPMCHANGE 240
#MEASURE 4/4
#SCROLL 0.5
10010010,
#BARLINEOFF
0220,
#BARLINEON
10010010,
#BARLINEOFF
0220,
#BARLINEON
10010010,
#BARLINEOFF
01001000,
#BARLINEON
11,
#BARLINEOFF
11, //38
#BARLINEON
1110,
#BARLINEOFF
1110,
#BARLINEON
12,
#BARLINEOFF
12,
#BARLINEON
444,
#BARLINEOFF
40000001, //44
#BARLINEON
#GOGOSTART
00101001,
#BARLINEOFF
00101001,
#BARLINEON
00002001,
#BARLINEOFF
00002001,
#BARLINEON
00101001,
#BARLINEOFF
00101001,
#BARLINEON
00002001,
#BARLINEOFF
00002001, //52
#BARLINEON
00101001,
#BARLINEOFF
00101002,
#BARLINEON
02,
#BARLINEOFF
500000000000000000000000000000000008000000000000,
#BARLINEON
0110,
#BARLINEOFF
10002009,
#BARLINEON
0,
#BARLINEOFF
0,
#BARLINEON
000000000009000000000000000000000000000000000000,
#BARLINEOFF
080000000000000000000000000000000000000000000000, //62
#GOGOEND
#BARLINEON
#MEASURE 3/4
#BPMCHANGE 120
#SCROLL 1
022020,
020708,
022020,
020708,
022020,
020708,
022020,
708100,
#BARLINEOFF
#BPMCHANGE 240
#SCROLL 0.5
0, //71
#BARLINEON
#MEASURE 4/4
#GOGOSTART
10010010,
#BARLINEOFF
0220,
#BARLINEON
10010010,
#BARLINEOFF
0220,
#BARLINEON
10010010,
#BARLINEOFF
0220,
#BARLINEON
10010010,
#BARLINEOFF
0, //79
#BARLINEON
1111,
#BARLINEOFF
0220,
#BARLINEON
1111,
#BARLINEOFF
0220,
#BARLINEON
10010010,
#BARLINEOFF
0220,
#BARLINEON
30030030,
#GOGOEND
#BARLINEOFF
#BPMCHANGE 60
#SCROLL 1
0,
#BARLINEON
0, //88
#END

COURSE:Easy
LEVEL:4
BALLOON:8,4,4,13,4,4,4
SCOREINIT:840,7860
SCOREDIFF:290
#START
1111,
500000000000000000000000000008000000000000000000,
1111,
500000000000000000000000000008000000000000000000, //4
#BPMCHANGE 240
#SCROLL 0.5
#GOGOSTART
11,
#BARLINEOFF
1110,
#BARLINEON
11,
#BARLINEOFF
500000000000000000000000000000000008000000000000,
#BARLINEON
0110,
#BARLINEOFF
10000005,
#BARLINEON
0,
#BARLINEOFF
0,
#BARLINEON
000000000000000000000000000000000000000000000008,
#BARLINEOFF
0, //14
#GOGOEND
#BARLINEON
#BPMCHANGE 120
#MEASURE 3/4
#SCROLL 1
02,
02,
02,
02,
02,
02,
7,
8, //22
000111,
11,
11,
100111,
11,
11,
500000000000000000000000000000000008,
0, //30
#BPMCHANGE 240
#MEASURE 4/4
#SCROLL 0.5
10010010,
#BARLINEOFF
0,
#BARLINEON
10010010,
#BARLINEOFF
0,
#BARLINEON
10010010,
#BARLINEOFF
01001000,
#BARLINEON
1,
#BARLINEOFF
1, //38
#BARLINEON
11,
#BARLINEOFF
11,
#BARLINEON
12,
#BARLINEOFF
12,
#BARLINEON
500000000000000000000000000000000000000000000008,
#BARLINEOFF
0, //44
#BARLINEON
#GOGOSTART
11,
#BARLINEOFF
1110,
#BARLINEON
7,
#BARLINEOFF
8,
#BARLINEON
11,
#BARLINEOFF
2220,
#BARLINEON
7,
#BARLINEOFF
8, //52
#BARLINEON
11,
#BARLINEOFF
1110,
#BARLINEON
22,
#BARLINEOFF
500000000000000000000000000000000008000000000000,
#BARLINEON
0111,
#BARLINEOFF
10000009,
#BARLINEON
0,
#BARLINEOFF
0,
#BARLINEON
000000000009000000000000000000000000000000000000,
#BARLINEOFF
080000000000000000000000000000000000000000000000, //62
#GOGOEND
#BARLINEON
#MEASURE 3/4
#BPMCHANGE 120
#SCROLL 1
020020,
070008,
020020,
070008,
020020,
070008,
020020,
111100,
#BARLINEOFF
#BPMCHANGE 240
#SCROLL 0.5
0, //71
#BARLINEON
#MEASURE 4/4
#GOGOSTART
10010010,
#BARLINEOFF
02,
#BARLINEON
10010010,
#BARLINEOFF
02,
#BARLINEON
10010010,
#BARLINEOFF
02,
#BARLINEON
10010010,
#BARLINEOFF
0, //79
#BARLINEON
10010010,
#BARLINEOFF
0220,
#BARLINEON
10010010,
#BARLINEOFF
0220,
#BARLINEON
10010010,
#BARLINEOFF
0220,
#BARLINEON
30030030,
#GOGOEND
#BARLINEOFF
#BPMCHANGE 60
#SCROLL 1
0,
#BARLINEON
0, //88
#END
