//TJADB Project
TITLE:VERTeX
TITLEJA:VERTeX
SUBTITLE:--Hiro (SEGA)/maimai
SUBTITLEJA:Hiro 「maimai でらっくす」より
BPM:237
WAVE:VERTeX.ogg
OFFSET:-1.869
DEMOSTART:51.995

COURSE:Oni
LEVEL:10
SCOREINIT:430
SCOREDIFF:108
#START
#MEASURE 6/4
#SCROLL 2
30
#SCROLL 0.6
0200002020,
#SCROLL 2
30
#SCROLL 0.6
0200002020,
#SCROLL 2
30
#SCROLL 0.6
0200002020,
#SCROLL 2
300000000000
#SCROLL 0.6
000000200000000000000000
#SCROLL 2
600000000000000000000008000000000000,
#SCROLL 0.6
102220102020102220102010,
102220102020102220102010,
102220102020102220102010,
122112122112,
#SCROLL 2
500000000000000000000000000000000000000000000000000000000008000000000000,
#SCROLL 0.6
101022102210102210100010,
101022102210101210100010,
101022102210102210100010,
110000400010110000400010,
101022102210102210100010,
101022102210101210100010,
101022102210102210100010,
012000112001200011201000,
101020111020101020111020,
100010001011201010200011,
101020111020101020111020,
100010001011202010102011,
101020111020101020112020,
100010001011201010102222,
101020111020101020112020,
101020111000
#SCROLL 2
400040000000,
#SCROLL 0.6
300010100010200011201010,
100020100011100020221010,
300010102010100011201010,
100020102011100010102020,
300010100010200011201010,
100020100011100020221010,
300010102010100010102211,
102220302220302220300000,//33
#GOGOSTART
#SCROLL 0.8
101010201110101010201110,
101010201110101010201110,
201010201110201010201110,//36
#GOGOEND
102001200020012000200120,//37
#GOGOSTART
101010201110101020112010,
101010201110101020112010,
101120112010101120112010,//40
#GOGOEND
#SCROLL 2
500000000000000000000000000000000000000000000000000000000008000000000000,
#SCROLL 0.6
100102102020,
100102102020,
100102102020,
#BARLINEOFF
#SCROLL 2
500000000000000000000008000000000000
#SCROLL 0.6
200000200000200000200000200000200000,
#BARLINEON
300020100022003000300000,
300020100022004000400020,
300020100022003000301110,
102000200020112011201120,
300020100022003000300000,
300020100012002000200020,
300020100012002000202020,
302220302020302220302040,
#SCROLL 1
#MEASURE 3/4
,
,
,
,//57
#MEASURE 6/4
#SCROLL 0.6
#GOGOSTART
111211121211,
111211121211,
111211121211,//60
#GOGOEND
102001200020012000200120,//61
#GOGOSTART
101010201110101020112010,
101010201110101020112010,
101120112010101120112010,//64
#GOGOEND
#SCROLL 2
500000000000000000000000000000000000000000000000000000000008000000000000,//73
#GOGOSTART
#SCROLL 0.8
101110201110101110201110,
101110201110101110201110,
201110201110201110201110,//68
#GOGOEND
102001200020012000200120,//69
#GOGOSTART
101210101210101210122210,
101210101210101210120210,
101210101210101210101210,
#SCROLL 2
500000000000000000000000000000000000000000000000000000000008000000000000,
#MEASURE 3/4
30
#SCROLL 1
1110201110,
101110201110,
#SCROLL 2
30
#SCROLL 1
1110201110,
101110201110,
#SCROLL 2
30
#SCROLL 1
1210201210,
101210201210,
#MEASURE 1/8
#SCROLL 2
3,
#MEASURE 5/8
#SCROLL 1
30301,//81
#GOGOEND
#MEASURE 3/4
3,
#END

COURSE:Hard
LEVEL:8
#START
#SCROLL 0.6
#MEASURE 6/4
300200002020,
300200002020,
300200002020,
3230,
122122102020,
122122102020,
122122102020,
111222111222,
#SCROLL 2
500000000000000008000000000000000000,
#SCROLL 0.6
102120101101,
102120101101,
102120101101,
1212,
102120101202,
102120101202,
102120101011,
040010400000,
102102102111,
101010211101,
102102102111,
101010211211,
102102101211,
101010211101,
102102101211,
101110404000,
301201001020,
101210101200,
301201001120,
101210101020,
301201001020,
101210101200,
301201001120,
500000000000000000000000008000000000,//33
#GOGOSTART
#SCROLL 0.8
111201111201,
111201111201,
111201111201,//36
#GOGOEND
020202020202,//37
#GOGOSTART
111201111010,
111201111010,
111222,//40
#GOGOEND
500000000000000000000000008000000000,
#SCROLL 0.6
100102102020,
100102102020,
100102102020,
#SCROLL 2
500000000000000008000000000000000000,
#SCROLL 0.6
111222030300,
111222040400,
111222030300,
120202120202,
111222030300,
111222020202,
111222111222,
500000000000000000000000000008000000,
#SCROLL 1
#MEASURE 3/4
,
,
,
,//57
#MEASURE 6/4
#SCROLL 0.6
#GOGOSTART
300200020200,
000200020200,
000200020200,
#GOGOEND
020202020202,
#GOGOSTART
111201111010,
111201111010,
111222,//64
#GOGOEND
500000000000000000000000008000000000,//65
#GOGOSTART
#SCROLL 0.8
111201111201,
111201111201,
111201111201,//68
#GOGOEND
020202020202,//69
#GOGOSTART
112112112121,
112112112121,
112121112121,//72
#GOGOEND
500000000000000000000000008000000000,//73
#MEASURE 3/4
#SCROLL 1
#GOGOSTART
111401,
111401,
111401,
111401,
111411,
111411,
#MEASURE 1/8
1,
#MEASURE 5/8
30301,//81
#GOGOEND
#MEASURE 3/4
3,
,
,
,
#END

COURSE:Normal
LEVEL:7
#START
#SCROLL 0.6
#MEASURE 6/4
300200002000,
300200002000,
300200002000,
3230,
100100102020,
100100102020,
100100102020,
111222,
#SCROLL 2
500000000000000008000000000000000000,
#SCROLL 0.6
102020101101,
102020101101,
102020101101,
1212,
102020102201,
102020102201,
102020102201,
040010400000,
100100100111,
12,
100100100111,
12,
100100101011,
12,
100100101011,
100100404000,
300200001020,
100110100200,
300200001020,
102100,
300200001020,
100110100200,
300200001020,
500000000000000000000008000000000000,//33
#GOGOSTART
#SCROLL 0.8
301101101101,
101101101101,
101101101101,//36
#GOGOEND
020202020200,//37
#GOGOSTART
301101101010,
101101101010,
111222,//40
#GOGOEND
500000000000000000000008000000000000,
#SCROLL 0.6
100202,
100202,
12,
#SCROLL 2
500000000000000008000000000000000000,
#SCROLL 0.6
3033,
34,
3033,
34,
101101110200,
102201110200,
101101110200,
500000000000000000000000000000008000,
#SCROLL 1
#MEASURE 3/4
,
,
,
,//57
#MEASURE 6/4
#SCROLL 0.6
#GOGOSTART
3202,
0202,
0202,//60
#GOGOEND
020202020200,//61
#GOGOSTART
301101101010,
101101101010,
111222,//64
#GOGOEND
500000000000000000000008000000000000,//73
#GOGOSTART
#SCROLL 0.8
301101101101,
101101101101,
101101101101,//64
#GOGOEND
020202020200,//65
#GOGOSTART
101011101110,
101011101110,
101011101110,//68
#GOGOEND
500000000000000000000008000000000000,//69
#MEASURE 3/4
#SCROLL 1
#GOGOSTART
33,
33,
33,
33,
333,
333,
#MEASURE 1/8
3,
#MEASURE 5/8
30303,//81
#GOGOEND
#MEASURE 3/4
3,
,
,
,
#END

COURSE:Easy
LEVEL:5
#START
#SCROLL 0.6
#MEASURE 6/4
300200002000,
000200002000,
000200002000,
0230,
1110,
1110,
1110,
1122,
#SCROLL 2
500000000000000008000000000000000000,
#SCROLL 0.6
101100,
101100,
101100,
110110,
102200,
102200,
102200,
040000400000,
1110,
11,
1110,
11,
100100100010,
11,
100100100010,
100100404000,
300011,
12,
300011,
12,
300022,
22,
300022,
500000000000000000000008000000000000,//33
#GOGOSTART
#SCROLL 0.8
1111,
1111,
1111,//36
#GOGOEND
020200020200,//37
#GOGOSTART
100100101010,
100100101010,
100100101010,//40
#GOGOEND
500000000000000000000008000000000000,
#SCROLL 0.6
12,
12,
12,
#SCROLL 2
500000000000000008000000000000000000,
#SCROLL 0.6
33,
34,
33,
34,
1112,
1112,
1112,
500000000000000000000000000000008000,
#SCROLL 1
#MEASURE 3/4
,
,
,
,//57
#MEASURE 6/4
#SCROLL 0.6
#GOGOSTART
3202,
0202,
0202,//60
#GOGOEND
020200020200,//61
#GOGOSTART
100100101010,
100100101010,
100100101010,//64
#GOGOEND
500000000000000000000008000000000000,//73
#GOGOSTART
#SCROLL 0.8
1111,
1111,
1111,//64
#GOGOEND
020200020200,//65
#GOGOSTART
111111,
111111,
111111,//68
#GOGOEND
500000000000000000000008000000000000,//69
#MEASURE 3/4
#SCROLL 1
#GOGOSTART
33,
33,
33,
33,
333,
333,
#MEASURE 1/8
3,
#MEASURE 5/8
30303,//81
#GOGOEND
#MEASURE 3/4
3,
,
,
,
#END
