//TJADB Project
TITLE:Yuugao no Kimi
TITLEJA:ユウガオノキミ
SUBTITLE:--Keiichi Okabe feat. Tomokazu Sano
BPM:128
WAVE:Yuugao no Kimi.ogg
OFFSET:-2.111
DEMOSTART:77.111

COURSE:Oni
LEVEL:7
BALLOON:10,16,14,10,14,26
SCOREINIT:630
SCOREDIFF:153
#START
3000000000300300,
3,
3000000000300300,
7008,
1020102010210120,
1020112011210120,
1020112010210120,
1020112022122120,
1011011011102101,
1011011011102100,
1011011011102101,
1011011012012022,
1011011011102101,
1011011011102100,
1011011011102100,
1,
1020102010210120,
1020112010210120,
1020102010210120,
1020112010210120,
1020102010210120,
1020112010210120,
1020002010210220,
500000000000000000000000008000000000000000000000,
2010102011201120,
2010102011201120,
2010102011201120,
1120112010210120,
1020112011210120,
1020112010210120,
1020112070000000,
0008,
2010102011201120,
2010102011201120,
2010102011201120,
1020112010210120,
1020112011210120,
1020112010210120,
7008,
3003003000000000,//40
#GOGOSTART
#SCROLL 1.5
1010202010210120,
1020112011210120,
1010202010210120,
1020112022122120,
1020102010210120,
1020112010210120,
5,
000008000000000000000000000000000000000000000000,//48
#GOGOEND
#SCROLL 1
3000000000300300,
7008,
3000000000300300,
70000008,//52
#GOGOSTART
#SCROLL 2
1010201010210120,
1020112010210120,
1020112050000000,
000000000008000000000000100000000000100000000000,
7,
0008,
1020112011210120,
1020112021121120,
1020112011210120,
1020112011210120,
1020112011210120,
4004003030030040,
221110300000000000000000,//65
#GOGOEND
#END

COURSE:Hard
LEVEL:6
SCOREINIT:700
SCOREDIFF:195
#START
3000000000300300,
3,
3000000000300300,
3,
1020102010110020,
1020102010110020,
12,
1001002010010020,
1011011010102000,
1011011010000000,
1011011010102000,
1011011010000000,
1011011010102000,
1011011010000000,
1011011010102000,
1,
1020100010110010,
1020100010110000,
1020100010110010,
12101202,
1020100010110010,
12101202,
10210121,
500000000000000000000008000000000000000000000000,
21121120,
21121120,
21121121,
21121120,
21121120,
21121120,
21125000,
000000000008000000000000000000000000000000000000,
2010102011102010,
2010102011102000,
2010102011102010,
2010102011102000,
2010102011102010,
2000102011102000,
500000000000000008000000000000300000300000600000,
000000000000000008000000000000000000000000000000,//40
#GOGOSTART
#SCROLL 1.5
1010202010110020,
11212020,
1010202010020020,
500000000000000000000000000008000000000000000000,
1010202010110020,
1010200010020020,
5,
000000000008000000000000000000000000000000000000,//48
#GOGOEND
#SCROLL 1
3000000000300300,
3,
3000000000300300,
3,//52
#GOGOSTART
#SCROLL 1.5
1010202010110010,
1010202010110010,
1010222010102220,
1002002010001000,
5,
000000000000000000000008000000000000000000000000,
1020102010110020,
12121020,
1020102010110020,
12121020,
12,
3003004030030040,
500008000000300000000000000000000000000000000000,//65
#GOGOEND
,
,
#END

COURSE:Normal
LEVEL:5
SCOREINIT:980
SCOREDIFF:340
#START
,
3,
1000000000300300,
3,
1212,
1212,
11,
1,
10011100,
10011000,
10011100,
10011000,
10011100,
10011000,
10011020,
1,
11101100,
11101200,
11101100,
500000000000000000000000000008000000000000000000,
11101100,
11101200,
11101120,
1,
10110010,
10110010,
10001015,
000000000000000000000008000000000000000000000000,
10110010,
10110010,
15,
000000000008000000000000000000000000000000000000,
10110020,
10110020,
10015000,
000000000008000000000000000000000000000000000000,
10110020,
1121,
500000000000000000000008000000000000000000600000,
000000000000000000000008000000000000000000000000,//40
#GOGOSTART
11101110,
500000000000000000000000000008000000000000000000,
11101120,
500000000000000000000000000008000000000000000000,
11101110,
10001110,
15,
000008000000000000000000000000000000000000000000,//48
#GOGOEND
3000000000300300,
3,
3000000000300300,
3,//52
#GOGOSTART
11101110,
11101120,
15,
000000000008000000000000100000000000100000000000,
5,
000000000000000000000008000000000000000000000000,
,
12,
1212,
1212,
12,
3003000030030000,
0300,//65
#GOGOEND
,
,
#END

COURSE:Easy
LEVEL:3
BALLOON:9
SCOREINIT:820
SCOREDIFF:388
#START
3,
3,
4,
4,
1011,
1011,
12,
1,
1011,
11,
1011,
1,
1011,
11,
11,
1,
1012,
1012,
12,
1,
1012,
1012,
12,
1,
1011,
1011,
11,
1,
2022,
2022,
500000000000000000000000000000000000000000000008,
,
1011,
1011,
1011,
1,
12,
1122,
5,
000000000000000000000008000000000000000000000000,//40
#GOGOSTART
1212,
1,
1212,
500000000000000000000000000008000000000000000000,
1011,
12,
15,
000000000008000000000000000000000000000000000000,//48
#GOGOEND
3,
3,
3,
3,//52
#GOGOSTART
1212,
1011,
12,
1022,
7,
8,
,
,
1012,
1012,
12,
12,
0300,//65
#GOGOEND
,
,
#END
