//TJADB Project
TITLE:Koi-kurenai
TITLEJA:濃紅
SUBTITLE:--Daisuke Kurosawa × Kanako Kotera
SUBTITLEJA:黒沢ダイスケ × 小寺可南子
BPM:220
WAVE:Koi-kurenai.ogg
OFFSET:-2.280
DEMOSTART:56.253 //shinuchi:
3130/1960/1390/930

COURSE:Oni
LEVEL:10
BALLOON:
SCOREINIT:350,1030
SCOREDIFF:83
#START
3030003000112010,
3030003000112050,
0,
0,
0,
000000000000000000000000000008000000200000300000, //6
#GOGOSTART
0011201021112030,
0011201022112030,
0010201120102011,
1110201022102030,
0011201021112030,
0011201022112030,
0010201122200030,
0010202211100030,
0010201122200030,
0010221120200030, //16
#GOGOEND
0010201110200010,
0010201120100010,
0010201110200010,
0011201120100010,
0010201110200010,
0010201120202030,
0010201022112210,
2011221120200030, //24
0010201210100010,
0010201120100010,
0010201210100010,
0011201210100010,
0010201210100010,
0010201120202030,
0011221122112211,
2121221120112000, //32
1000200011102010,
0010201022102010,
0010201022112050,
000000000000000000000008000000000000200000200000,
1000200011102010,
0010201022102010,
1120221011202210,
0010221122112020, //40
1000200011102010,
0010201022102010,
0010201022112050,
000000000000000000000008000000000000200000200000,
1110101011101010,
1210112110102010,
41414141,
4011201120112210,
40440404,
44440003, //50
#GOGOSTART
0010201110112011,
1011201110112010,
0010201110202011,
1120201022112010,
0010201120100010,
0022101022102010,
2211102211102211,
1040001120400030,
0010201110112011,
1011201110112010,
0010201110112011,
1120201022112030,
3030004000112030,
3030004000112060, //64
#GOGOEND
0,
000000000000000000000000000000000008000000300000,
0210201010202020,
1020102010112010,
0210201212112010,
0210201122112010,
0210201010202020,
1020102010112010, //72
0220202011202010,
0220202012202010,
0220201022102010,
2011201020122010,
0210201122112211,
2121212122112211,
500000000000000000000008000000000000100000000000,
500000000000000000000000000000000008000000000000,
1212121211221122,
100200100200100020001000200000200000000000300000, //82
02,
20002002,
0020202000222010,
0022202020202010,
0022202020202010,
2222102010203030,
#GOGOSTART
3030003000221020,
1020001120200030, //90
#GOGOEND
0232,
30203026,
000000000000000008000000400000400000000000600000,
000000000000000000000008000000000000400000400000,
3030003000221040,
3030003000221060,
000000000000000000000000000000000000000000000008,
00002203, //98
#GOGOSTART
0010201110112011,
1011201110112010,
0010201110202011,
1120201022112010,
0010201120100010,
0022101022102010,
2211102211102211,
1040001120400030, //106
0010201110112011,
1011201110112010,
0010201110112011,
1120201022112030,
3030004000112030,
3030004000112060,
000000000000000000000000000000000000000008000000,
1110121011104040, //114
3030003000221040,
3030003000221050,
0,
0,
0,
000000000000000000000000000000000008000000300000, //120
#GOGOEND
0011201021112030,
0011201022112030,
0010201122200030,
0010202211100030,
0010201122200030,
0010221120200030,
0,
0, //128
#END

COURSE:Hard
LEVEL:7
BALLOON:30,17,12,32
SCOREINIT:380,1740
SCOREDIFF:88
#START
33030030,
33030037,
0,
0,
0,
000000000000000000000000080000000000000000300000, //6
#GOGOSTART
0010200011102030,
0010200022202030,
01212103,
01212123,
0010200011102030,
0010200022202030,
01212203,
01212103,
01212203,
0010201120100030, //16
#GOGOEND
01201021,
01201021,
10211021,
00202021,
01201021,
01201023,
0000200020112000,
10212203, //24
01201121,
01201021,
10211021,
00202021,
01201121,
01201023,
0000200020112000,
1000201020201110, //32
10201201,
0010200011102010,
01201025,
000000000000000000000008000000000000200000200000,
10201201,
01201120,
1110200011102010,
000000500000000000000008000000000000200000200000, //40
10201201,
0010200011102010,
01201025,
000000000000000000000008000000000000200000200000,
10021205,
000000000000000000000008000000000000300000200000,
30033306,
000000000000000000000000000000000000000008000000,
30330303,
33330001, //50
#GOGOSTART
0010200011102000,
1010200011102010,
01210122,
1010202011102010,
0010200011102010,
01221230,
33030030,
30002201,
0010200011102000,
1010200011102010,
0010200011102010,
01221230,
33030040,
33030046,//64
#GOGOEND
0,
000000000000000000000000000000000000000008000000,
0,
00000001,
01101021,
01101021,
0010100011102020,
12121001, //72
02202021,
02202021,
0020200022201010,
21212001,
0010100020001110,
0010100020001110,
7,
0008,
7,
00802203, //82
02,
20002002,
02220000,
00002222,
00002202,
00000033,
#GOGOSTART
33030030,
30002203, //90
#GOGOEND
04,
30004006,
000000000000000008000000400000400000000000600000,
000000000000000000000008000000000000400000400000,
33030044,
33030046,
000000000000000000000000000000000000000000000008,
00002201, //98
#GOGOSTART
0010200011102000,
1010200011102010,
01210122,
1010202011102010,
0010200011102010,
01221230,
33030030,
30002201, //106
0010200011102000,
1010200011102010,
0010200011102010,
01221230,
33030040,
33030046,
0,
000000000000000008000000000000000000400000400000, //114
33030044,
33030047,
0,
0,
0,
000000000000000000000000080000000000000000300000, //120
#GOGOEND
0010200011102030,
0010200022202030,
01212203,
01212103,
01212203,
0010201120100030,
0,
0, //128
#END

COURSE:Normal
LEVEL:6
BALLOON:24,25,25
SCOREINIT:400,2630
SCOREDIFF:100
#START
33030030,
33030037,
0,
0,
0,
000000000000000000000000080000000000000000300000, //6
#GOGOSTART
01102003,
01102003,
01101003,
01101003,
01102003,
01102003,
01102203,
01102203,
01102203,
01102203, //16
#GOGOEND
0202,
0202,
00200021,
0222,
0202,
00202023,
0222,
10210003,
0212,
0212,
00201021,
0222,
0212,
00201023,
0222,
10210000, //32
10102201,
00202011,
00202015,
000000000000000000000008000000000000000000000000,
10102201,
0122,
10002011,
000000500000000000000008000000000000000000000000,
10102201,
00202011,
00202015,
000000000000000000000008000000000000100000100000,
10011105,
000000000000000000000008000000000000300000000000,
30033306,
000000000000000000000000000000000000000008000000,
30330303,
33330001, //50
#GOGOSTART
01201020,
10201021,
01210020,
00201021,
00201201,
0003,
33030030,
30002201,
01201020,
10201021,
00201201,
0003,
33030030,
33030036, //64
#GOGOEND
0,
000000000000000000000000000000000000000008000000,
0,
00000001,
01101001,
01101001,
01101010,
10101001,
02202001,
02202001,
02202020,
20202001,
01101001,
02202000,
7,
0,
0,
00008003, //82
0,
0,
0,
00002002,
00002002,
0003,
#GOGOSTART
33030030,
30002203,
#GOGOEND
03,
30003006,
000000000000000008000000300000300000000000300000,
0003,
33030030,
33030036,
0000000000000000000000000000000000000000000000008,
00002201, //98
#GOGOSTART
01201020,
10201021,
01210020,
00201021,
00201201,
0003,
33030030,
30002201,
01201020,
10201021,
00201201,
0003,
33030030,
33030036,
0,
000000000000000008000000000000000000300000300000, //114
33030033,
33030037,
0,
0,
0,
000000000000000000000000080000000000000000300000, //120
#GOGOEND
01102003,
01102003,
01102203,
01102203,
01102203,
01102203,
0,
0, //128
#END

COURSE:Easy
LEVEL:4
BALLOON:20,20,20
SCOREINIT:370,4240
SCOREDIFF:83
#START
30030030,
30030037,
0,
0,
0,
000000000000000000000000080000000000000000300000, //6
#GOGOSTART
00101003,
00101003,
00101003,
00101003,
00202003,
00202003,
0222,
0222,
0222,
00202003, //16
#GOGOEND
0102,
0202,
0202,
0222,
0202,
00202003,
0222,
10010003,
0212,
0212,
0212,
0222,
0212,
00202003,
0212,
10010000, //32
10101001,
00101001,
00101005,
000000000000000000000008000000000000000000000000,
10101001,
0110,
10001005,
000000000000000000000008000000000000000000000000,
10101001,
00101001,
00101005,
000000000000000000000008000000000000000000000000,
30003006,
000000000000000000000008000000000000000000000000,
30003006,
000000000000000000000000000000000000000008000000,
0,
00000001, //50
#GOGOSTART
01,
10001001,
0100,
00001001,
00001001,
0,
30030030,
30000001,
01,
10001001,
00001001,
0,
30030030,
30030036, //64
#GOGOEND
0,
000000000000000000000000000000000000000008000000,
0,
00000001,
00101001,
00101001,
00101001,
00000001,
00202001,
00202001,
00202001,
00000001,
00101001,
0220,
7,
0,
0,
00008003, //82
0,
0,
0,
00000002,
00000002,
0,
#GOGOSTART
30030030,
30000003, //90
#GOGOEND
03,
30003006,
000000000000000008000000000000000000000000300000,
0,
30030030,
30030036,
000000000000000000000000000000000000000000000008,
00000001, //98
#GOGOSTART
01,
10001001,
0100,
00001001,
00001001,
0,
30030030,
30000001,
01,
10001001,
00001001,
0,
30030030,
30030036,
0,
000000000000000008000000000000000000000000000000, //114
30030030,
30030037,
0,
0,
0,
000000000000000000000000080000000000000000300000, //120
#GOGOEND
00101003,
00101003,
00202003,
00202003,
00202003,
00202003,
0,
0, //128
#END
