//TJADB Project
TITLE:INSPION
TITLEJA:INSPION
SUBTITLE:--Daisuke Kurosawa -INSPION Company Theme-
SUBTITLEJA:サウンド制作スタジオ「INSPION」社歌
BPM:296
WAVE:INSPION.ogg
OFFSET:-0.033
DEMOSTART:42.197 //shinuchi:
3880/2660/1380/920

COURSE:Oni
LEVEL:10
BALLOON:3,6,6,8
SCOREINIT:340,950
SCOREDIFF:75
#START
#MEASURE 8/4
#SCROLL 0.75
#GOGOSTART
111122222222111122222222,
100010001000100010001000200020002000200020002000500000000000000000000008000000000000000000000000,
#GOGOEND
#SCROLL 0.5
3,
1001000000000000,
3,
2012012010210210,
3000102210221020,
1001002210221020,
3000102210221020,
40001020001020001022202020202020, //10
1021012011210120,
1021012011210120,
1021012011210120,
1121112011211122,
1021012011210120,
1021012011210120,
1021012011210120,
10102010101020001022202020202020, //18
1011201111112011,
2011202111112011,
2011201111112011,
2011202111211120,
2011201212112011,
2011202212112011,
2011201212112011,
20001010200040001022202020202020, //26
#SCROLL 0.75
#GOGOSTART
1020112101201120,
1020112102201120,
1020112210210120,
1020112022101122,
1020112101201120,
1020112102201020,
1111222211112222,
1111222211222211, //34
2000201021012010,
2010221021022010,
2010221120120210,
2010222210112022,
2010201021012010,
2010221021022010,
2111211121112111,
2112112011222222, //42
#GOGOEND
#SCROLL 0.5
1022120210210220,
1022120210222020,
1022120210210220,
1022120210221010,
3022120210210210,
1022120210221020,
1022120210210210,
1022120210221040, //50
#SCROLL 0.75
#GOGOSTART
222222111111221111221111,
#GOGOEND
#SCROLL 0.5
200000000000000000000111,
1001000000000000,
3,
40001020001020001022202020202020, //55
#SCROLL 0.75
#GOGOSTART
500000000000000000000000000000000000000000000000000008000000000200000000000000000000200000000000,
100000000000200000100000000000000000500000000000000000000000000000000000000000000008000000000000,
1010221011202210,
200000200000100000100000200000200000100000000000200000100000000000500000000000000008000000000000,
1110202010202070,
8010201020102210,
2221112021121120,
100000100000100000200000200000200000100000100000100000200000200000200000500000000000000008000000, //63
700000000000000000000000080000000000100000100000200000200000100000100000200000200000100000100000,
2211221120112020,
1111201202101120,
1211211211211211,
700000000000000000000000080000000000200000100000200000100000100000200000100000100000200000100000,
1211211021112010,
1121121121121121,
12112121
#GOGOEND
70000080, //71
#GOGOSTART
1020112101201120,
1020112102201120,
1020112210210120,
1020112022101122,
1020112101201120,
1020112101201120,
1111222211112222,
1111222211222211, //79
2010201021012010,
2010221021022010,
2010221120120210,
2010222210112022,
2010201021012010,
2010221021012010,
2111211121112111,
2111112011222222, //87
#GOGOEND
#SCROLL 0.5
1022120210210210,
1022120210222020,
1022120210210210,
1022120210221040,
#SCROLL 0.75
#GOGOSTART
111122222222111122222222,
100010001000100010001000200020002000200020002000500000000000000000000008000000000000000000000000,
3,
#GOGOEND
0,
0, //96
#END

COURSE:Hard
LEVEL:8
BALLOON:12,15,7,2,4,3,14,12
SCOREINIT:390,1510
SCOREDIFF:88
#START
#MEASURE 8/4
#SCROLL 0.75
#GOGOSTART
5,
000000000000000000000000000000000000000000000008000000000000000000000000000000000000000000000000,
#GOGOEND
#SCROLL 0.5
3,
1001000000000000,
3,
3003003040040040,
3000202220222020,
1001002220222020,
3000202220222020,
3003003010222220, //10
1001010110001020,
1001010110202000,
1001010110001020,
1011022010110220,
1001010110001020,
1001010110202000,
1001010110001020,
100000000000100000100000000000200000200000000000500000000000000000000000000000000008000000000000,
1010220010220220,
1010220010102020,
1010220010220220,
1010220010102000,
1020220010220220,
1020220010102020,
1020220010220220,
100000000000200000000000200000200000000000200000500000000000000000000000000000000008000000000000, //26
#SCROLL 0.75
#GOGOSTART
1010201101101020,
1020201001102000,
1010201101101020,
0011102020202000,
1010201101101020,
1020201001102000,
1110101022202020,
1110101022202022, //34
2000102011011010,
2010201001102000,
2010102011011010,
0010222220011022,
2010102011011010,
2010201001102000,
1110111011101110,
7008, //42
#GOGOEND
#SCROLL 0.5
1020220020220220,
1020220020202020,
1020220020220220,
1020220020204000,
3020220010220220,
1020220010201020,
1020220010220220,
1020220010101040,
#SCROLL 0.75
#GOGOSTART
70000008, //51
#GOGOEND
#SCROLL 0.5
4,
1001000000000000,
3,
4004004010222220, //55
#SCROLL 0.75
#GOGOSTART
500000000000000000000000000000000000000000000008000000000000000200000000000000000000200000000000,
1011007000000080,
1010222011102000,
200000000000100000100000100000000000100000000000200000200000000000500000000000000008000000000000,
1110202010102070,
81212120,
1110222010102000,
100000100000100000000000200000200000200000000000100000000000100000000000500000000000000008000000, //63
7000082220201010,
2220201010002020,
1110201101102000,
1110201101102220,
7000802022022020,
2202202010201000,
2011101020222010,
7000
#GOGOEND
0008, //71
#GOGOSTART
3010201101101020,
1020201001102000,
1010201101101020,
0011102020202000,
1010201101101020,
1020201001102000,
1110101022202020,
1110101022202000, //79
2010102011011010,
2010201001102000,
2010102011011010,
0010222220011022,
2010102011011010,
2010201001102000,
1110111011101110,
7008, //87
#GOGOEND
#SCROLL 0.5
1010220010220220,
1010220010202020,
1020220010220220,
1020220010201040,
#SCROLL 0.75
#GOGOSTART
5,
000000000000000000000000000000000000000000000008000000000000000000000000000000000000000000000000,
3,
#GOGOEND
0,
0, //96
#END

COURSE:Normal
LEVEL:6
BALLOON:18,8,8,5,8,8,4,8,17,8,8
SCOREINIT:580,3020
SCOREDIFF:115
#START
#MEASURE 8/4
#SCROLL 0.75
#GOGOSTART
5,
000000000000000000000000000000000000000000000008000000000000000000000000000000000000000000000000,
#GOGOEND
#SCROLL 0.5
3,
1001000000000000,
3,
200000000000000000200000000000000000200000000000500000000000000000000008000000000000000000000000,
30101210,
1001000010201000,
30101210,
200000000000000000200000000000000000200000000000500000000000000000000008000000000000000000000000, //10
1001000010201000,
1001000020002000,
1001000010201000,
2002000020020000,
1001000010201000,
1001000020002000,
1001000010201000,
200000000000000000200000000000000000200000000000500000000000000000000008000000000000000000000000, //18
1010100020020020,
11102020,
1010100020020020,
11102020,
1010100020020020,
11102020,
1010100020020020,
100000000000100000000000100000000000000000000000500000000000000000000008000000000000000000000000, //26
#SCROLL 0.75
#GOGOSTART
10121012,
11110020,
10111022,
000000000000200000000000500000000000000000000000000000000000000000000008000000000000000000000000,
10121012,
11110020,
7,
0008, //34
20212021,
22220010,
20222011,
000000000000100000000000500000000000000000000000000000000000000000000008000000000000000000000000,
20212021,
22220010,
600000000000000000000000000000000000000000000000000000000000000000000008000000000000000000000000,
7008, //42
#GOGOEND
#SCROLL 0.5
1222,
10202220,
1222,
10202240,
3212,
10201120,
1111,
10101130, //50
#SCROLL 0.75
#GOGOSTART
7008,
#GOGOEND
#SCROLL 0.5
3,
1001000000000000,
3,
200000000000000000200000000000000000200000000000500000000000000000000008000000000000000000000000, //55
#SCROLL 0.75
#GOGOSTART
500000000000000000000000000000000000000000000000000000000000000000000000000008000000000000000000,
100000000000000000100000000000000000700000000000000000000000000000000000000000000008000000000000,
100000000000100000000000500000000000000000000000000000000000000000000000000000000008000000000000,
2020200010010000,
11201122,
02202022,
500000000000000000000000000000000008000000000000600000000000000000000000000000000008000000000000,
7008, //63
40011022,
10111020,
10210121,
7008,
300000000000000000000000000000000000100000000000600000000000000000000000000000000008000000000000,
500000000000000000000000000000000008000000000000700000000000000000000000000000000000080000000000,
11101110,
70
#GOGOEND
08, //71
#GOGOSTART
10121012,
11110020,
10111022,
000000000000200000000000500000000000000000000000000000000000000000000008000000000000000000000000,
10121012,
11110020,
7,
0008, //79
20212021,
22220010,
20222011,
000000000000100000000000500000000000000000000000000000000000000000000008000000000000000000000000,
20212021,
22220010,
600000000000000000000000000000000000000000000000000000000000000000000008000000000000000000000000,
7008, //87
#GOGOEND
#SCROLL 0.5
1222,
10201220,
1112,
10101140,
#SCROLL 0.75
#GOGOSTART
5,
000000000000000000000000000000000000000000000008000000000000000000000000000000000000000000000000,
7,
#GOGOEND
8,
0, //96
#END

COURSE:Easy
LEVEL:5
BALLOON:14,6,3,6,14,8
SCOREINIT:480,4530
SCOREDIFF:83
#START
#MEASURE 8/4
#SCROLL 0.75
#GOGOSTART
5,
000000000000000000000000000000000000000000000008000000000000000000000000000000000000000000000000,
#GOGOEND
#SCROLL 0.5
3,
1001000000000000,
3,
500000000000000000000000000000000000000000000000000000000000000008000000000000000000000000000000,
3011,
1001000010001000,
3011,
500000000000000000000000000000000000000000000000000000000000000008000000000000000000000000000000, //10
1011,
1011,
1011,
22,
1011,
1011,
1011,
500000000000000000000000000000000000000000000000000000000000000008000000000000000000000000000000, //18
2222,
2220,
2222,
2220,
1212,
1210,
1212,
500000000000000000000000000000000000000000000000000000000000000000000008000000000000000000000000, //26
#SCROLL 0.75
#GOGOSTART
1111,
10110020,
10101011,
000000000000100000000000500000000000000000000000000000000000000000000008000000000000000000000000,
1111,
10110020,
7,
0008, //34
2222,
20220010,
20202022,
000000000000200000000000500000000000000000000000000000000000000000000008000000000000000000000000,
2222,
20220010,
6,
000000000000000000000000000000000000000000000000000000000000000000000008000000000000000000000000, //42
#GOGOEND
#SCROLL 0.5
12,
1022,
12,
1024,
32,
1012,
11,
1013, //50
#SCROLL 0.75
#GOGOSTART
7008,
#GOGOEND
#SCROLL 0.5
3,
1001000000000000,
3,
500000000000000000000000000000000000000000000000000000000000000000000008000000000000000000000000, //55
#SCROLL 0.75
#GOGOSTART
32,
100000000000000000000000000000000000700000000000000000000000000000000000000008000000000000000000,
1500,
000000000000000000000000000000000000000000000000000000000000000000000008000000000000000000000000,
10201101,
0222,
6,
000000000000000000000000000000000000000000000000000000000000000000000008000000000000000000000000, //63
30011020,
1112,
1122,
7008,
30015000,
000000000000000000000000000000000000000000000000000000000000000000000008000000000000000000000000,
3333,
44
#GOGOEND
40, //71
#GOGOSTART
1111,
10110020,
10101011,
000000000000100000000000500000000000000000000000000000000000000000000008000000000000000000000000,
1111,
10110020,
7,
0008, //79
2222,
20220010,
20202022,
000000000000200000000000500000000000000000000000000000000000000000000008000000000000000000000000,
2222,
20220010,
6,
000000000000000000000000000000000000000000000000000000000000000000000008000000000000000000000000, //87
#GOGOEND
#SCROLL 0.5
12,
1022,
1120,
1122,
#SCROLL 0.75
#GOGOSTART
5,
000000000000000000000000000000000000000000000008000000000000000000000000000000000000000000000000,
7,
#GOGOEND
8,
0, //96
#END
