//TJADB Project
TITLE:Yo-kai Taisou Dai Ichi
TITLEJA:ようかい体操第一
SUBTITLE:--Dream5/Yo-kai Watch
SUBTITLEJA:「妖怪ウォッチ」より
BPM:125
WAVE:Yo-kai Taisou Dai Ichi.ogg
OFFSET:-2.262
DEMOSTART:6.062

COURSE:Oni
LEVEL:7
SCOREINIT:970
SCOREDIFF:313
#START
,
00000222,
#GOGOSTART
1011202210112022,
1010221021201000,
1011202210112022,
1010221021201000,
1011201122112022,
1011201020100010,
500000000008000000100000500000000008000000300000,
600000000000000008000000400000300000300000000000,
1021201020121020,
33444330,
#GOGOEND
,
2222202200000000,
,
2222202200202020,
10211202,
11212000,
11212021,
11212000,
1000201022102000,
2000102011201000,
300000400000000000400000000000600000000000000008,
#MEASURE 2/4
,
#MEASURE 4/4
1111,
1010221010102210,
33400000,
30211210,
1212,
1020102021102110,
#MEASURE 2/4
#SCROLL 3
4,
#MEASURE 4/4
#SCROLL 1
,
00000222,
#GOGOSTART
1011202210112022,
1010221021201000,
1011202210112022,
1010221021201000,
1011201122112022,
1011201020100010,
500000000008000000100000500000000008000000300000,
600000000000000008000000400000300000300000000000,
1021201020121020,
33444330,
#GOGOEND
,
#SCROLL 3
3,
#END

COURSE:Hard
LEVEL:5
BALLOON:8,8
SCOREINIT:940
SCOREDIFF:310
#START
,
,
#GOGOSTART
1011101110111000,
11221120,
1011101110111000,
11221120,
1011101110222000,
11221105,
000000000008000000500000000000000008000000600000,
000000000000000008000000300000300000300000000000,
11221122,
33443330,//12
#GOGOEND
,
7008,
,
7008,
10011001,
11011000,
20022002,
22022000,
10211120,
10212120,
300000400000000000400000000000600000000000000008,
#MEASURE 2/4
,
#MEASURE 4/4
1111,
11211121,
33300000,
30211120,
1212,
12121212,
#MEASURE 2/4
3,
#MEASURE 4/4
,
00000222,//33
#GOGOSTART
1011101110111000,
11221120,
1011101110111000,
11221120,
1011101110222000,
11221105,
000000000008000000500000000000000008000000600000,
000000000000000008000000300000300000300000000000,
11221122,
33443330,//43
#GOGOEND
,
3,
,
#END

COURSE:Normal
LEVEL:3
BALLOON:5,5,12
#START
,
,//2
#GOGOSTART
3333,
44,
3333,
44,
10101110,
30003005,
000000000008000000500000000000000008000000600000,
000000000000000008000000000000000000000000000000,
1122,
30303330,//12
#GOGOEND
,
7008,
,
7008,
11,
1110,
22,
2220,
10101110,
30303330,
600000000000000000000000000000000000000000000008,
#MEASURE 2/4
,
#MEASURE 4/4
1111,
11101110,
33300000,
30011100,
9009,
8,
#MEASURE 2/4
3,
#MEASURE 4/4
,
,//33
#GOGOSTART
3333,
600000000000000000000000000000000008000000000000,
3333,
600000000000000000000000000000000008000000000000,
10101110,
30003005,
000000000008000000500000000000000008000000600000,
000000000000000008000000000000000000000000000000,
1122,
30303330,//43
#GOGOEND
,
3,
,
#END

COURSE:Easy
LEVEL:2
BALLOON:3,3,6
#START
,
,//2
#GOGOSTART
3333,
,
3333,
,
1110,
30003005,
000000000008000000500000000000000008000000600000,
000000000000000008000000000000000000000000000000,
11,
3333,//12
#GOGOEND
,
7008,
,
7008,
1,
11,
1,
11,
1110,
3330,
600000000000000000000000000000000000000000000008,
#MEASURE 2/4
,
#MEASURE 4/4
1111,
11,
3300,
3033,
9009,
8,
#MEASURE 2/4
3,
#MEASURE 4/4
,
,//33
#GOGOSTART
3333,
600000000000000000000000000008000000000000000000,
3333,
600000000000000000000000000008000000000000000000,
1110,
30003005,
000000000008000000500000000000000008000000600000,
000000000000000008000000000000000000000000000000,
11,
3333,//43
#GOGOEND
,
3,
,
#END
