//TJADB Project
TITLE:Chiriyuku Ran no Tsuzura Uta
TITLEJA:散りゆく蘭の綴る詩
SUBTITLE:--Hidekazu Tanaka feat. BKO
BPM:180
WAVE:Chiriyuku Ran no Tsuzura Uta.ogg
OFFSET:-1.603
DEMOSTART:68.262

COURSE:Oni
LEVEL:9
SCOREINIT:450
SCOREDIFF:115
#START
#GOGOSTART
30000306,
000000000000000000000000000008000000400000000000,
30000306,
000000000000000000000008000000100100200000000000,
1010201210102011,
1010201210102000,
30333333,
03300000,
#GOGOEND
30210202,
0020002000112000,
30210202,
0010102000112000,
30210202,
0020002000112000,
30210202,
0010102000112000,
30210121,
0010201022102000,
10210121,
0010201021012000,
10210121,
0010201022102000,
10210121,
0010201021121121,
1001201010012010,
0010201022102100,
1001201010012010,
0010201021012011,
1001201010012010,
0010201022102100,
1001201010012010,
0010201021121121,
1010201110102011,
1020112012012012,
1010201110102011,
1020112012102022,
1010201110102011,
1020112012012012,
1010201110102011,
1020112021012222,
1010201110102011,
1020112012012012,
1010201110102011,
1020112012102022,
1010201110102011,
1020112012012012,
1010201110102011,
1020112021012222,
10000004,
0040004000112000,
#GOGOSTART
1110201110200011,
2010210120112011,
1110201110200011,
2010210120112011,
1010201210102011,
1010201210102011,
1110201111202050,
000000000000000000000000000008000000000000000000,
1110201110200012,
1020120210121011,
1110201110200012,
1020120210121011,
1010201210102011,
1010201210102011,
2110201121102012,
2112211222112110,
#GOGOEND
30000004,
04040400,
30000004,
0040004000112000,
#GOGOSTART
1010201210102011,
1010201210102011,
1110201111202050,
000000000000000000000000000008000000000000000000,
1110201110200022,
1020120210121011,
1110201110200022,
1020120210121011,
1010201210102011,
1010201221121210,
30333333,
03300040,
#GOGOEND
30210202,
0020002000112000,
30210202,
0010102000112000,
30210202,
0020002000112000,
30210202,
0010102000112000,
000221100000000000000000,
#END

COURSE:Hard
LEVEL:6
SCOREINIT:350
SCOREDIFF:90
#START
#GOGOSTART
30000306,
000000000000000000000000000008000000000000000000,
30000306,
000000000000000000000000000008000000000000000000,
1010200010102011,
11211120,
30333333,
03300000,
#SECTION
#BRANCHSTART p,75,90
#N
30210202,
02020120,
30210202,
01120120,
30210202,
02020120,
30210202,
01120120,
#E
30210202,
02020120,
30210202,
01120120,
30210202,
02020120,
30210202,
01120120,
#M
30210202,
02020120,
30210202,
01120120,
30210202,
02020120,
30210202,
01120120,
#SECTION
#BRANCHSTART p,75,90
#N
30210120,
10201120,
10210120,
10201120,
10210120,
10201120,
10210120,
1000200011102000,
#E
30210121,
01201120,
10210121,
01201120,
10210121,
01201120,
10210121,
0010200011111000,
#M
30210121,
01210120,
10210121,
01211120,
10210121,
01210120,
10210121,
0010200011101110,
#SECTION
#BRANCHSTART p,75,90
#N
10220120,
10210120,
10220120,
10210120,
10220120,
10210120,
10220120,
1000200011102000,
#E
10220121,
0010201000111000,
10220121,
0010201000111000,
10220121,
0010201000111000,
10220121,
0010200011111000,
#M
1000202011102010,
0010201011102000,
1000202011102010,
0010201011102000,
1000202011102010,
0010201011102000,
1000202011102010,
0010201011101110,
#SECTION
#BRANCHSTART p,75,90
#N
11201120,
1010200011102000,
11201120,
1010200011102000,
11201120,
1010200011102000,
11201120,
#E
1010200010102011,
11201120,
1010200010102011,
11201120,
1010200010102011,
11201120,
1010200010102011,
#M
1010200010102011,
1010200011102011,
1010200010102011,
1010200011102022,
1010200010102011,
1010200011102011,
1010200010102011,
#SECTION
#BRANCHSTART p,75,90
#N
1010201110102000,
112011201,
1010200011102000,
1010200010102010,
1010200011102000,
1010200010102010,
1010200011102000,
11201121,
1010201110102000,
30000003,
03030040,
#E
1010201110102000,
1010200010102011,
11201220,
1010200010102011,
11201220,
1010200010102011,
11201220,
1010200010102011,
1010201110102000,
30000003,
03030040,
#M
1010201110201110,
1010200010102011,
1010200011102011,
1010200010102011,
1010200011102022,
1010200010102011,
1010200011102011,
1010200010102011,
1010201110201110,
30000004,
0040004000112000,
#SECTION
#BRANCHSTART p,75,90
#N
#GOGOSTART
11201203,
03040400,
11201203,
03040400,
11201201,
01201120,
1010200011102050,
000000000000000000000000000008000000000000000000,
11201201,
01221220,
11201201,
01221220,
11201121,
11201121,
11201120,
1110200011102000,
#E
11211203,
03040400,
11211203,
03040400,
11211201,
01211120,
1110200011102050,
000000000000000000000000000008000000000000000000,
11211201,
1020201110202000,
11211201,
1020201110202000,
11201121,
11201121,
11201121,
1010101011111000,
#M
#GOGOSTART
1010201110200030,
03040400,
1010201110200030,
03040400,
1010201110200010,
0010201110102000,
1110200011102050,
000000000000000000000000000008000000000000000000,
1110201110200010,
1020201110202000,
1110201110200010,
1020201110202000,
1010200010102011,
1010200010102011,
1010201110102000,
1110111011102000,
#GOGOEND
#SECTION
#BRANCHSTART p,75,90
#N
30000003,
03030300,
30000003,
03030040,
#E
30000003,
03030300,
30000003,
03030040,
#M
30000004,
04040400,
30000004,
0040004000112000,
#SECTION
#BRANCHSTART p,75,90
#N
#GOGOSTART
11201201,
01201120,
1010200011102050,
000000000000000000000000000008000000000000000000,
11201201,
01221220,
11201201,
01221220,
11201121,
1010200011102000,
30333333,
03300000,
#E
#GOGOSTART
11211201,
01211120,
1110200011102050,
000000000000000000000000000008000000000000000000,
11211201,
1020201110202000,
11211201,
1020201110202000,
11201121,
1010200011102000,
30333333,
03300000,
#M
#GOGOSTART
1010201110200010,
0010201110102000,
1110200011102050,
000000000000000000000000000008000000000000000000,
1110201110200010,
1020201110202000,
1110201110200010,
1020201110202000,
1010200010102011,
1010201110102000,
30333333,
03300040,
#GOGOEND
#SECTION
#BRANCHSTART p,75,90
#N
30210202,
02020120,
30210202,
01120120,
30210202,
02020120,
30210202,
01120120,
0100,
#END

COURSE:Normal
LEVEL:6
#START
#GOGOSTART
30000306,
00000800,
30000306,
00000800,
10201120,
10201120,
30333333,
03300000,
#GOGOEND
30220202,
02020000,
30220202,
02220000,
30220202,
02020000,
30220202,
02220000,
30200120,
10200120,
10200120,
10201120,
10200120,
10200120,
10200125,
0000000000080000,
10110020,
10110020,
10110020,
10201120,
10110020,
10110020,
10110025,
0000000000080000,
10201120,
10201120,
10201120,
11102000,
10201120,
10201120,
10201125,
0000000000080000,
10201120,
10201120,
10201120,
11102000,
10201120,
10201120,
10201125,
0000000000080000,
30000003,
03030040,
#GOGOSTART
10201203,
03030300,
10201203,
03030300,
10201201,
01201120,
11201125,
0000000000080000,
10210201,
02202220,
10210201,
02202220,
10201120,
10201120,
11201120,
11111120,
#GOGOEND
30000003,
03030300,
30000003,
03030040,
#GOGOSTART
10201201,
01201120,
11201125,
0000000000080000,
10210201,
02202220,
10210202,
02202220,
10201120,
11201120,
30333333,
03300000,
#GOGOEND
30220202,
02020000,
30220202,
02220000,
30220202,
02020000,
30220202,
02220020,
0300,//357combo
,
,
,
,
,
,
,
#END

COURSE:Easy
LEVEL:4
BALLOON:6,6,6
#START
#GOGOSTART
30000306,
00000800,
30000306,
00000800,
1120,
1122,
90000908,
,
#GOGOEND
30020202,
02020000,
30020202,
00020000,
30020202,
02020000,
30020202,
00020000,
31,
1120,
11,
1120,
11,
1120,
10001005,
0000000000080000,
1110,
1120,
1110,
1122,
1110,
1120,
10101005,
0000000000080000,
1120,
11102020,
1120,
11102020,
1120,
11102020,
10102005,
0000000000080000,
1120,
11102020,
1120,
11102020,
1120,
11102020,
10102005,
0000000000080000,
30000003,
03030000,
#GOGOSTART
10101003,
03030300,
10101003,
03030300,
12,
1120,
11102005,
0000000000080000,
1110,
22202020,
1110,
22202020,
1120,
1122,
90000908,
,
#GOGOEND
30000003,
03030300,
30000003,
03030000,
#GOGOSTART
12,
1120,
11102005,
0000000000080000,
1110,
22202020,
1110,
22202020,
1120,
1122,
90000908,
,
#GOGOEND
30020202,
02020000,
30020202,
00020000,
30020202,
02020000,
30020202,
00020020,
0300,//241combo
,
,
,
,
,
,
,
#END
